(House, Electro) [CDM] Bomfunk MC\'s - Super Electric - 2001, FLAC (tracks+.cue), lossless 

Цитировать
Bomfunk MC's - Super Electric
Жанр: House, Electro
Носитель: CDM
Страна-производитель диска: Europe
Год издания: 2001
Издатель (лейбл): Epidrome
Номер по каталогу: EPD 671826 2
Страна: Finland
Аудиокодек: FLAC (*.flac)
Тип рипа: tracks+.cue
Битрейт аудио: lossless
Продолжительность: 00:35:36
Источник (релизер): Собственный рип
Наличие сканов в содержимом раздачи: нет
Треклист:
01. Super Electric (Original Version) (3:54)
02. Super Electric (Fu-Tourist Remix) (5:40)
03. Super Electric (Bostik Remix) (6:36)
04. Super Electric (JS16 Remix) (6:37)
05. Super Electric (Label 23 Remix) (6:47)
06. Super Electric (Jan Driver Remix) (6:02)

Лог создания рипа

Exact Audio Copy V1.0 beta 3 from 29. August 2011
EAC extraction logfile from 11. January 2014, 15:09
Bomfunk MC's / Super Electric CDM
Used drive : ATAPI DVD A DH20A3H Adapter: 1 ID: 1
Read mode : SecureUtilize accurate stream : YesDefeat audio cache : YesMake use of C2 pointers : No
Read offset correction : 6Overread into Lead-In and Lead-Out : NoFill up missing offset samples with silence : YesDelete leading and trailing silent blocks : NoNull samples used in CRC calculations : YesUsed interface : Installed external ASPI interfaceGap handling : Appended to previous track
Used output format : User Defined EncoderSelected bitrate : 1024 kBit/sQuality : HighAdd ID3 tag : YesCommand line compressor : C:\Program Files\FLAC\flac.exeAdditional command line options : -V -8 -T "Genre=%genre%" -T "Artist=%artist%" -T "Title=%title%" -T "Album=%albumtitle%" -T "Date=%year%" -T "Tracknumber=%tracknr%" -T "Comment=%comment%" %source%
TOC of the extracted CD
Track | Start | Length | Start sector | End sector --------------------------------------------------------- 1 | 0:00.00 | 3:54.33 | 0 | 17582 2 | 3:54.33 | 5:40.20 | 17583 | 43102 3 | 9:34.53 | 6:36.00 | 43103 | 72802 4 | 16:10.53 | 6:37.63 | 72803 | 102640 5 | 22:48.41 | 6:47.70 | 102641 | 133235 6 | 29:36.36 | 6:02.29 | 133236 | 160414 7 | 38:10.65 | 10:08.66 | 171815 | 217480
Track 1
Filename C:\Мои раздачи\Bomfunk MC's\Singles\2001 - Super Electric CDM\01 - Super Electric (Original Version).wav
Pre-gap length 0:00:02.00
Peak level 92.2 % Extraction speed 5.0 X Track quality 100.0 % Test CRC 35BDB5F1 Copy CRC 35BDB5F1 Track not present in AccurateRip database Copy OK
Track 2
Filename C:\Мои раздачи\Bomfunk MC's\Singles\2001 - Super Electric CDM\02 - Super Electric (Fu-Tourist Remix).wav
Pre-gap length 0:00:02.00
Peak level 99.9 % Extraction speed 5.4 X Track quality 99.9 % Test CRC D642D490 Copy CRC D642D490 Track not present in AccurateRip database Copy OK
Track 3
Filename C:\Мои раздачи\Bomfunk MC's\Singles\2001 - Super Electric CDM\03 - Super Electric (Bostik Remix).wav
Pre-gap length 0:00:02.00
Peak level 91.8 % Extraction speed 6.8 X Track quality 100.0 % Test CRC 4A17B97D Copy CRC 4A17B97D Track not present in AccurateRip database Copy OK
Track 4
Filename C:\Мои раздачи\Bomfunk MC's\Singles\2001 - Super Electric CDM\04 - Super Electric (JS16 Remix).wav
Pre-gap length 0:00:02.00
Peak level 96.8 % Extraction speed 7.5 X Track quality 100.0 % Test CRC 4B533E10 Copy CRC 4B533E10 Track not present in AccurateRip database Copy OK
Track 5
Filename C:\Мои раздачи\Bomfunk MC's\Singles\2001 - Super Electric CDM\05 - Super Electric (Label 23 Remix).wav
Pre-gap length 0:00:02.00
Peak level 99.8 % Extraction speed 8.1 X Track quality 100.0 % Test CRC 01234E1F Copy CRC 01234E1F Track not present in AccurateRip database Copy OK
Track 6
Filename C:\Мои раздачи\Bomfunk MC's\Singles\2001 - Super Electric CDM\06 - Super Electric (Jan Driver Remix).wav
Pre-gap length 0:00:02.00
Peak level 99.8 % Extraction speed 8.6 X Track quality 100.0 % Test CRC 60A436C5 Copy CRC 60A436C5 Track not present in AccurateRip database Copy OK
None of the tracks are present in the AccurateRip database
No errors occurred
End of status report
==== Log checksum 2CC832E769EA6D7FA85D122176A5E214C77227A48C74845B32B0585952354EC2 ====

Содержание индексной карты (.CUE)

REM GENRE ElectronicREM DATE 2001REM DISCID 620B5307REM COMMENT "ExactAudioCopy v1.0b3"PERFORMER "Bomfunk MC's"TITLE "Super Electric CDM"FILE "01 - Super Electric (Original Version).wav" WAVE  TRACK 01 AUDIO    TITLE "Super Electric (Original Version)"    PERFORMER "Bomfunk MC's"    INDEX 01 00:00:00  TRACK 02 AUDIO    TITLE "Super Electric (Fu-Tourist Remix)"    PERFORMER "Bomfunk MC's"    INDEX 00 03:52:33FILE "02 - Super Electric (Fu-Tourist Remix).wav" WAVE    INDEX 01 00:00:00  TRACK 03 AUDIO    TITLE "Super Electric (Bostik Remix)"    PERFORMER "Bomfunk MC's"    INDEX 00 05:38:20FILE "03 - Super Electric (Bostik Remix).wav" WAVE    INDEX 01 00:00:00  TRACK 04 AUDIO    TITLE "Super Electric (JS16 Remix)"    PERFORMER "Bomfunk MC's"    INDEX 00 06:34:00FILE "04 - Super Electric (JS16 Remix).wav" WAVE    INDEX 01 00:00:00  TRACK 05 AUDIO    TITLE "Super Electric (Label 23 Remix)"    PERFORMER "Bomfunk MC's"    INDEX 00 06:35:63FILE "05 - Super Electric (Label 23 Remix).wav" WAVE    INDEX 01 00:00:00  TRACK 06 AUDIO    TITLE "Super Electric (Jan Driver Remix)"    PERFORMER "Bomfunk MC's"    INDEX 00 06:45:70FILE "06 - Super Electric (Jan Driver Remix).wav" WAVE    INDEX 01 00:00:00  TRACK 07 MODEx/2xxx    TITLE "Data"    PERFORMER "Bomfunk MC's"    INDEX 00 06:02:29
Вы не можете начинать темы
Вы не можете отвечать на сообщения
Вы не можете редактировать свои сообщения
Вы не можете удалять свои сообщения
Вы не можете голосовать в опросах
Вы не можете прикреплять файлы к сообщениям
Вы можете скачивать файлы
!ВНИМАНИЕ!

Сайт не предоставляет электронные версии произведений, а занимается лишь коллекционированием и каталогизацией ссылок, присылаемых и публикуемых на форуме нашими читателями. Если вы являетесь правообладателем какого-либо представленного материала и не желаете, чтобы ссылка на него находилась в нашем каталоге, свяжитесь с нами, и мы незамедлительно удалим ее. Файлы для обмена на трекере предоставлены пользователями сайта, и администрация не несет ответственности за их содержание. Просьба не заливать файлы, защищенные авторскими правами, а также файлы нелегального содержания!

Искали программы, игры, дополнения, музыка mp3, аниме, аудио книги, журналы? Добро пожаловать на свободный торрент трекер Torrents, у нас можно скачать бесплатно, без смс и регистрации и прочих ограничений лучшие, отборные сборки программ, игр. Скачать торрентом не составит труда даже не опытному пользователю. Раздачи ежедневно обновляются, только лучшие и качественные раздачи, подробные описания и скриншоты. Огромная коллекция программ для работы со звуком, графикой, дизайном, а так же множество плагинов и инструментов к ним с подробной инструкцией и рекомендациями. Прошивки для навигаторов, карты. Разнообразные игры, для Windows, Linux. В коллекцие есть и старые игры любых жанров, Rpg, Action, Shooter, strategy Множество дополнений, модификаций, сценариев для популярных игр в жанре экш, рпг, гонки, стратегии, логические игры. Множество аддонов и сценариев для Microsoft Flight Simulator Большая коллекция книг, учебников. Если нет возможности купить печатное издание - смело скачивайте цифровую версию книги или, быть может, журнала. Не любите читать - можно загрузить бесплатно аудикнигу. Для веб дизайнеров и программистов так же найдется множество специализированного софта, таких как: редакторы с подсветкой, среды программирования, компоненты, системы управления базами данных, разнообразные скрипты и шаблоны. Не так давно у нас появился материал для автолюбителей и владельцев мото - оригинальные и неоригинальные каталоги запчастей, книги и журналы по ремонту и обслуживанию, видеоуроки, статьи по чип тюнингу, прошивкам. Процедура получения контента элементарная, достаточно просто скачать торрент файл и добавить его в загрузку в вашем торрент клиенте. Если у вас нет специального торрент клиента, вы можете его скачать у нас.