(Electro, Breakbeat) Bomb The Bass - Megablast / Don\'t Make Me Wait - 1988, FLAC (tracks+.cue), lossless 

Цитировать
Bomb The Bass / Megablast / Don't Make Me Wait
Жанр: Electro, Breakbeat
Год издания: 1988
Издатель (лейбл): Rhythm King Records
Номер по каталогу: DOOD 2CD
Аудиокодек: FLAC (*.flac)
Тип рипа: tracks+.cue
Битрейт аудио: lossless
Продолжительность: 19:59
Источник (релизер): what.cd
Наличие сканов в содержимом раздачи: нет
Треклист:
01. Bomb The Bass - Don't Make Me Wait (Featuring Lauraine) [03:45]
02. Bomb The Bass - Megablast (Hip Hop On Precinct 13 -Featuring Merlin) [05:21]
03. Bomb The Bass - Don't Make Me Wait (Maximum Frequency Mix - Featuring Lauraine) [05:38]
04. Bomb The Bass - Megablast (Original Rap - Featuring Merlin) [05:14]

Лог создания рипа

Exact Audio Copy V1.0 beta 3 from 29. August 2011
EAC extraction logfile from 15. October 2012, 19:39
Bomb The Bass / Megablast, Don't Make Me Wait
Used drive : HL-DT-STDVD+-RW GT32N Adapter: 0 ID: 1
Read mode : SecureUtilize accurate stream : YesDefeat audio cache : YesMake use of C2 pointers : No
Read offset correction : 103Overread into Lead-In and Lead-Out : NoFill up missing offset samples with silence : YesDelete leading and trailing silent blocks : NoNull samples used in CRC calculations : YesUsed interface : Native Win32 interface for Win NT & 2000Gap handling : Appended to previous track
Used output format : User Defined EncoderSelected bitrate : 1024 kBit/sQuality : HighAdd ID3 tag : NoCommand line compressor : C:\Program Files (x86)\Exact Audio Copy\FLAC\flac.exeAdditional command line options : -8 -V -T "ARTIST=%artist%" -T "TITLE=%title%" -T "ALBUM=%albumtitle%" -T "DATE=%year%" -T "TRACKNUMBER=%tracknr%" -T "GENRE=%genre%" -T "PERFORMER=%albuminterpret%" -T "COMPOSER=%composer%" %haslyrics%--tag-from-file=LYRICS="%lyricsfile%"%haslyrics% -T "ALBUMARTIST=%albumartist%" -T "DISCNUMBER=%cdnumber%" -T "TOTALDISCS=%totalcds%" -T "TOTALTRACKS=%numtracks%" -T "COMMENT=%comment%" %source% -o %dest%
TOC of the extracted CD
Track | Start | Length | Start sector | End sector --------------------------------------------------------- 1 | 0:00.02 | 3:45.40 | 2 | 16916 2 | 3:45.42 | 5:21.60 | 16917 | 41051 3 | 9:07.27 | 5:38.35 | 41052 | 66436 4 | 14:45.62 | 5:14.13 | 66437 | 89999
Track 1
Filename C:\Users\Ian\Desktop\01 Don't Make Me Wait (Featuring Lauraine).wav
Pre-gap length 0:00:02.02
Peak level 100.0 % Extraction speed 1.2 X Track quality 100.0 % Test CRC 022BA4DE Copy CRC 022BA4DE Accurately ripped (confidence 6) [F0E92841] (AR v1) Copy OK
Track 2
Filename C:\Users\Ian\Desktop\02 Megablast (Hip Hop On Precinct 13 -Featuring Merlin).wav
Peak level 100.0 % Extraction speed 1.4 X Track quality 100.0 % Test CRC 0763C4F7 Copy CRC 0763C4F7 Accurately ripped (confidence 6) [B9213AC6] (AR v1) Copy OK
Track 3
Filename C:\Users\Ian\Desktop\03 Don't Make Me Wait (Maximum Frequency Mix - Featuring Lauraine).wav
Peak level 100.0 % Extraction speed 1.6 X Track quality 100.0 % Test CRC 5B981A91 Copy CRC 5B981A91 Accurately ripped (confidence 6) [A541DD4B] (AR v1) Copy OK
Track 4
Filename C:\Users\Ian\Desktop\04 Megablast (Original Rap - Featuring Merlin).wav
Peak level 95.0 % Extraction speed 1.7 X Track quality 100.0 % Test CRC 0A51E324 Copy CRC 0A51E324 Accurately ripped (confidence 6) [4B10D3CE] (AR v1) Copy OK
All tracks accurately ripped
No errors occurred
End of status report
==== Log checksum C1215FFB8E38FF7593912BDC63649D46D3B9CF1B70AB1C14AA0F93DE6E73E64B ====

Содержание индексной карты (.CUE)

REM GENRE DanceREM DATE 1988REM DISCID 3604B004REM COMMENT "ExactAudioCopy v1.0b3"PERFORMER "Bomb The Bass"TITLE "Megablast, Don't Make Me Wait"FILE "01 Don't Make Me Wait (Featuring Lauraine).wav" WAVE  TRACK 01 AUDIO    TITLE "Don't Make Me Wait (Featuring Lauraine)"    PERFORMER "Bomb The Bass"    PREGAP 00:00:02    INDEX 01 00:00:00FILE "02 Megablast (Hip Hop On Precinct 13 -Featuring Merlin).wav" WAVE  TRACK 02 AUDIO    TITLE "Megablast (Hip Hop On Precinct 13 -Featuring Merlin)"    PERFORMER "Bomb The Bass"    INDEX 01 00:00:00FILE "03 Don't Make Me Wait (Maximum Frequency Mix - Featuring Lauraine).wav" WAVE  TRACK 03 AUDIO    TITLE "Don't Make Me Wait (Maximum Frequency Mix - Featuring Lauraine)"    PERFORMER "Bomb The Bass"    INDEX 01 00:00:00FILE "04 Megablast (Original Rap - Featuring Merlin).wav" WAVE  TRACK 04 AUDIO    TITLE "Megablast (Original Rap - Featuring Merlin)"    PERFORMER "Bomb The Bass"    INDEX 01 00:00:00

Вы не можете начинать темы
Вы не можете отвечать на сообщения
Вы не можете редактировать свои сообщения
Вы не можете удалять свои сообщения
Вы не можете голосовать в опросах
Вы не можете прикреплять файлы к сообщениям
Вы можете скачивать файлы
!ВНИМАНИЕ!

Сайт не предоставляет электронные версии произведений, а занимается лишь коллекционированием и каталогизацией ссылок, присылаемых и публикуемых на форуме нашими читателями. Если вы являетесь правообладателем какого-либо представленного материала и не желаете, чтобы ссылка на него находилась в нашем каталоге, свяжитесь с нами, и мы незамедлительно удалим ее. Файлы для обмена на трекере предоставлены пользователями сайта, и администрация не несет ответственности за их содержание. Просьба не заливать файлы, защищенные авторскими правами, а также файлы нелегального содержания!

Искали программы, игры, дополнения, музыка mp3, аниме, аудио книги, журналы? Добро пожаловать на свободный торрент трекер Torrents, у нас можно скачать бесплатно, без смс и регистрации и прочих ограничений лучшие, отборные сборки программ, игр. Скачать торрентом не составит труда даже не опытному пользователю. Раздачи ежедневно обновляются, только лучшие и качественные раздачи, подробные описания и скриншоты. Огромная коллекция программ для работы со звуком, графикой, дизайном, а так же множество плагинов и инструментов к ним с подробной инструкцией и рекомендациями. Прошивки для навигаторов, карты. Разнообразные игры, для Windows, Linux. В коллекцие есть и старые игры любых жанров, Rpg, Action, Shooter, strategy Множество дополнений, модификаций, сценариев для популярных игр в жанре экш, рпг, гонки, стратегии, логические игры. Множество аддонов и сценариев для Microsoft Flight Simulator Большая коллекция книг, учебников. Если нет возможности купить печатное издание - смело скачивайте цифровую версию книги или, быть может, журнала. Не любите читать - можно загрузить бесплатно аудикнигу. Для веб дизайнеров и программистов так же найдется множество специализированного софта, таких как: редакторы с подсветкой, среды программирования, компоненты, системы управления базами данных, разнообразные скрипты и шаблоны. Не так давно у нас появился материал для автолюбителей и владельцев мото - оригинальные и неоригинальные каталоги запчастей, книги и журналы по ремонту и обслуживанию, видеоуроки, статьи по чип тюнингу, прошивкам. Процедура получения контента элементарная, достаточно просто скачать торрент файл и добавить его в загрузку в вашем торрент клиенте. Если у вас нет специального торрент клиента, вы можете его скачать у нас.