(Electro / Big Beat / Breakbeat) Computerjockeys - Plankton - 2001, FLAC (image+.cue), lossless 

Цитировать
Computerjockeys / Plankton Жанр: Electro / Big Beat / Breakbeat
Страна-производитель диска: EU
Год издания: 2001
Издатель (лейбл): Island Records (Universal Music)
Номер по каталогу: 542 879-2
Матрица диска: 07314 542 897-2 01 + 51208667
Страна: Germany
Аудиокодек: FLAC (*.flac)
Тип рипа: image+.cue
Режим рипа: test & copy
Битрейт аудио: lossless
Продолжительность: 01:12:28
Источник (релизер): CD (sewerok)
Наличие сканов в содержимом раздачи: да
Треклист:
01. Into An Electronic Pop Album [0:01:48.58]
02. How Fish Do [0:04:06.15]
03. Cozmic Girl [0:05:28.24]
04. My Golden Boy [0:03:24.16]
05. W'tashiwei Kiku [0:04:16.00]
06. Atari [0:05:39.05]
07. B'come (Lupin) [0:05:28.00]
08. Talkin' All That... [0:04:24.17]
09. Angel [0:04:38.63]
10. Where I Broke The Spell [0:04:21.25]
11. Big Town [0:04:59.00]
12. Really [0:03:55.27]
13. Immortal Blues [0:05:41.08]
14. Words [0:03:58.62]
15. Night [0:06:29.03]
16. Postcard From Ayako To Regina [0:03:50.31]

Лог создания рипа

Exact Audio Copy V1.0 beta 3 from 29. August 2011
EAC extraction logfile from 26. July 2013, 15:03
Computerjockeys / Plankton
Used drive : TSSTcorpCD/DVDW TS-L632D Adapter: 0 ID: 0
Read mode : Secure
Utilize accurate stream : Yes
Defeat audio cache : Yes
Make use of C2 pointers : No
Read offset correction : 6
Overread into Lead-In and Lead-Out : No
Fill up missing offset samples with silence : Yes
Delete leading and trailing silent blocks : No
Null samples used in CRC calculations : Yes
Used interface : Native Win32 interface for Win NT & 2000
Used output format : User Defined Encoder
Selected bitrate : 896 kBit/s
Quality : High
Add ID3 tag : No
Command line compressor : C:\Program Files (x86)\Exact Audio Copy\Flac\flac.exe
Additional command line options : -8 -V -T "Date=%year%" -T "Genre=%genre%" -T "COMMENT=ripped by sewerok®" %source%
TOC of the extracted CD
Track | Start | Length | Start sector | End sector
---------------------------------------------------------
1 | 0:00.00 | 1:48.58 | 0 | 8157
2 | 1:48.58 | 4:06.15 | 8158 | 26622
3 | 5:54.73 | 5:28.24 | 26623 | 51246
4 | 11:23.22 | 3:24.16 | 51247 | 66562
5 | 14:47.38 | 4:16.00 | 66563 | 85762
6 | 19:03.38 | 5:39.05 | 85763 | 111192
7 | 24:42.43 | 5:28.00 | 111193 | 135792
8 | 30:10.43 | 4:24.17 | 135793 | 155609
9 | 34:34.60 | 4:38.63 | 155610 | 176522
10 | 39:13.48 | 4:21.25 | 176523 | 196122
11 | 43:34.73 | 4:59.00 | 196123 | 218547
12 | 48:33.73 | 3:55.27 | 218548 | 236199
13 | 52:29.25 | 5:41.08 | 236200 | 261782
14 | 58:10.33 | 3:58.62 | 261783 | 279694
15 | 62:09.20 | 6:29.03 | 279695 | 308872
16 | 68:38.23 | 3:50.31 | 308873 | 326153
Range status and errors
Selected range
Filename E:\Computerjockeys ‎– Plankton [2001](ISLAND 542 879-2 EU)\Computerjockeys - Plankton.wav
Peak level 99.7 %
Extraction speed 2.1 X
Range quality 100.0 %
Test CRC C7B008EE
Copy CRC C7B008EE
Copy OK
No errors occurred
AccurateRip summary
Track 1 accurately ripped (confidence 5) [827B1DED] (AR v2)
Track 2 accurately ripped (confidence 5) [04A84526] (AR v2)
Track 3 accurately ripped (confidence 5) [4E1F796B] (AR v2)
Track 4 accurately ripped (confidence 5) [9F3B234B] (AR v2)
Track 5 accurately ripped (confidence 5) [781A419D] (AR v2)
Track 6 accurately ripped (confidence 5) [85286B51] (AR v2)
Track 7 accurately ripped (confidence 5) [C1A77BC1] (AR v2)
Track 8 accurately ripped (confidence 5) [5B942476] (AR v2)
Track 9 accurately ripped (confidence 5) [449EACCD] (AR v2)
Track 10 accurately ripped (confidence 5) [377119C9] (AR v2)
Track 11 accurately ripped (confidence 5) [8905B765] (AR v2)
Track 12 accurately ripped (confidence 5) [58DE7614] (AR v2)
Track 13 accurately ripped (confidence 5) [08DBDF1F] (AR v2)
Track 14 accurately ripped (confidence 5) [CA6ED34C] (AR v2)
Track 15 accurately ripped (confidence 5) [F7818E60] (AR v2)
Track 16 accurately ripped (confidence 5) [3CF19819] (AR v2)
All tracks accurately ripped
End of status report
==== Log checksum 3893BA22A0B9C0835E88EAEF668370D91CB70883350A4159FEF9D5AE7F17BBAF ====

CUETools log

[CUETools log; Date: 26.07.2013 15:07:38; Version: 2.1.4]
[CTDB TOCID: D9JSA030twxJjk3Gshho8PitJJc-] found.
Track | CTDB Status
1 | (2/3) Accurately ripped
2 | (3/3) Accurately ripped
3 | (3/3) Accurately ripped
4 | (2/3) Accurately ripped
5 | (2/3) Accurately ripped
6 | (3/3) Accurately ripped
7 | (3/3) Accurately ripped
8 | (2/3) Accurately ripped
9 | (2/3) Accurately ripped
10 | (3/3) Accurately ripped
11 | (3/3) Accurately ripped
12 | (3/3) Accurately ripped
13 | (3/3) Accurately ripped
14 | (3/3) Accurately ripped
15 | (3/3) Accurately ripped
16 | (3/3) Accurately ripped
[AccurateRip ID: 00285b71-01ee06a4-d510fc10] found.
Track [ CRC | V2 ] Status
01 [f81d8776|827b1ded] (11+05/16) Accurately ripped
02 [0945eaa5|04a84526] (11+05/16) Accurately ripped
03 [5a7585b0|4e1f796b] (11+05/16) Accurately ripped
04 [9016712e|9f3b234b] (11+05/16) Accurately ripped
05 [79a92940|781a419d] (11+05/16) Accurately ripped
06 [977626b8|85286b51] (11+05/16) Accurately ripped
07 [1a0327b5|c1a77bc1] (11+05/16) Accurately ripped
08 [e9d9be63|5b942476] (11+05/16) Accurately ripped
09 [0f372354|449eaccd] (11+05/16) Accurately ripped
10 [ff17806b|377119c9] (11+05/16) Accurately ripped
11 [b818eb1c|8905b765] (11+05/16) Accurately ripped
12 [c25d0242|58de7614] (11+05/16) Accurately ripped
13 [cf080a4d|08dbdf1f] (11+05/16) Accurately ripped
14 [af829789|ca6ed34c] (11+05/16) Accurately ripped
15 [c476e7a0|f7818e60] (11+05/16) Accurately ripped
16 [b409cae5|3cf19819] (10+05/15) Accurately ripped
Track Peak [ CRC32 ] [W/O NULL] [ LOG ]
-- 99,7 [C7B008EE] [8D0E03DB] CRC32
01 99,6 [CD7EC112] [AF774A19]
02 99,7 [02E6C9E8] [997E250A]
03 99,7 [E51DAF3C] [5AF91117]
04 99,7 [1C410506] [57BEBAD4]
05 99,7 [20DC0315] [413B408B]
06 99,7 [F2AA3AEA] [7D82B1DA]
07 99,7 [72C8C535] [347AE145]
08 99,7 [399CE23D] [3D088A86]
09 99,7 [DD546B40] [3D1E8801]
10 99,7 [A7D92113] [38211748]
11 99,7 [BD856B43] [B5825A28]
12 99,7 [E45C104D] [E0230915]
13 99,7 [938DCA1D] [70E536CB]
14 99,7 [B8DAC195] [79755018]
15 99,7 [93EA8D29] [74226D6B]
16 99,7 [054A5A00] [D74585C7]

Back, CD, Matrix

Вы не можете начинать темы
Вы не можете отвечать на сообщения
Вы не можете редактировать свои сообщения
Вы не можете удалять свои сообщения
Вы не можете голосовать в опросах
Вы не можете прикреплять файлы к сообщениям
Вы можете скачивать файлы
!ВНИМАНИЕ!

Сайт не предоставляет электронные версии произведений, а занимается лишь коллекционированием и каталогизацией ссылок, присылаемых и публикуемых на форуме нашими читателями. Если вы являетесь правообладателем какого-либо представленного материала и не желаете, чтобы ссылка на него находилась в нашем каталоге, свяжитесь с нами, и мы незамедлительно удалим ее. Файлы для обмена на трекере предоставлены пользователями сайта, и администрация не несет ответственности за их содержание. Просьба не заливать файлы, защищенные авторскими правами, а также файлы нелегального содержания!

Искали программы, игры, дополнения, музыка mp3, аниме, аудио книги, журналы? Добро пожаловать на свободный торрент трекер Torrents, у нас можно скачать бесплатно, без смс и регистрации и прочих ограничений лучшие, отборные сборки программ, игр. Скачать торрентом не составит труда даже не опытному пользователю. Раздачи ежедневно обновляются, только лучшие и качественные раздачи, подробные описания и скриншоты. Огромная коллекция программ для работы со звуком, графикой, дизайном, а так же множество плагинов и инструментов к ним с подробной инструкцией и рекомендациями. Прошивки для навигаторов, карты. Разнообразные игры, для Windows, Linux. В коллекцие есть и старые игры любых жанров, Rpg, Action, Shooter, strategy Множество дополнений, модификаций, сценариев для популярных игр в жанре экш, рпг, гонки, стратегии, логические игры. Множество аддонов и сценариев для Microsoft Flight Simulator Большая коллекция книг, учебников. Если нет возможности купить печатное издание - смело скачивайте цифровую версию книги или, быть может, журнала. Не любите читать - можно загрузить бесплатно аудикнигу. Для веб дизайнеров и программистов так же найдется множество специализированного софта, таких как: редакторы с подсветкой, среды программирования, компоненты, системы управления базами данных, разнообразные скрипты и шаблоны. Не так давно у нас появился материал для автолюбителей и владельцев мото - оригинальные и неоригинальные каталоги запчастей, книги и журналы по ремонту и обслуживанию, видеоуроки, статьи по чип тюнингу, прошивкам. Процедура получения контента элементарная, достаточно просто скачать торрент файл и добавить его в загрузку в вашем торрент клиенте. Если у вас нет специального торрент клиента, вы можете его скачать у нас.