(Freestyle, Electro, Breakbeat) VA - Nu Electro Volume 1 - 2009, FLAC (tracks+.cue), lossless 

Цитировать
VA - Nu Electro Volume 1
Жанр: Freestyle, Electro, Breakbeat
Год выпуска диска: 2009
Производитель диска: UK
Аудио кодек: FLAC
Тип рипа: tracks+.cue
Битрейт аудио: lossless
Продолжительность: 02:12:21
Трэклист:
1-01 B Boys, The* - You Know We Rock 6:20
1-02 Cha-os - Records, Turntables (Rap Version) 4:47
1-03 Egyptian Lover, The* - Do U Wanna Get Down (Deb's Duel Of Legends Mix) 6:13
1-04 Dr. Schmidt - The Engines Of God 6:59
1-05 Blastromen - Blasteroids 6:06
1-06 Newcleus - Programmed 4 L.O.V.E. 6:07
1-07 Darxid - Bass Operator 5:54
1-08 Signal Type - In Abyss (Gods Of Technology Remix) 5:16
1-09 Mandroid - Anti-Gravity Machines (Morphogenetic Remix) 5:13
1-10 Aux 88 - Space Satellites 6:24
1-11 Freddy Fresh Featuring Bladerunners, The - Mastermix 13:22
2-01 Exzakt - No Disco 6:10
2-02 Invisible Rockers Crew - Electro Empire 8:20
2-03 Dynamik Bass System - Side By Side 4:33
2-04 Zak B - The Real (Hip Hop) (Remix) 5:17
2-05 Electronautus* - Back In The Day 5:30
2-06 Dark Vektor - Wires 6:02
2-07 Debonaire* - Watch Me Now 5:29
2:08 Supreme.Ja - Freak (Street Version) 6:29
2-09 Steril - Rock The Nation 5:25
2-10 Bass Junkie - Sub-Mission (Controll The Bass) 6:31
2-11 Diplomat - Mastermix 7:04
Доп. информация: http://www.discogs.com/Various-Nu-Electro-Volume-1/release/1755085

EAC Log CD1

Exact Audio Copy V0.99 prebeta 4 from 23. January 2008
EAC extraction logfile from 19. October 2009, 0:20
Various / Nu Electro Vol. One (cd1)
Used drive : TSSTcorpCDDVDW SH-S223F Adapter: 5 ID: 0
Read mode : Secure
Utilize accurate stream : Yes
Defeat audio cache : Yes
Make use of C2 pointers : No
Read offset correction : 6
Overread into Lead-In and Lead-Out : No
Fill up missing offset samples with silence : Yes
Delete leading and trailing silent blocks : No
Null samples used in CRC calculations : Yes
Used interface : Native Win32 interface for Win NT & 2000
Gap handling : Appended to previous track
Used output format : User Defined Encoder
Selected bitrate : 1024 kBit/s
Quality : High
Add ID3 tag : No
Command line compressor : C:\Program Files (x86)\Exact Audio Copy\FLAC\FLAC.EXE
Additional command line options : -V -8 -T "artist=%a" -T "title=%t" -T "album=%g" -T "date=%y" -T "tracknumber=%n" -T "genre=%m" %s
TOC of the extracted CD
Track | Start | Length | Start sector | End sector
---------------------------------------------------------
1 | 0:00.00 | 6:19.07 | 0 | 28431
2 | 6:19.07 | 4:47.08 | 28432 | 49964
3 | 11:06.15 | 6:09.14 | 49965 | 77653
4 | 17:15.29 | 7:01.54 | 77654 | 109282
5 | 24:17.08 | 6:07.02 | 109283 | 136809
6 | 30:24.10 | 7:06.09 | 136810 | 168768
7 | 37:30.19 | 5:56.43 | 168769 | 195511
8 | 43:26.62 | 5:15.47 | 195512 | 219183
9 | 48:42.34 | 4:56.18 | 219184 | 241401
10 | 53:38.52 | 6:39.33 | 241402 | 271359
11 | 60:18.10 | 13:22.32 | 271360 | 331541
Track 1
Filename P:\ T\ What\A\VA - [2009] - Nu Electro Vol. One (cd1) [FLAC]\01 - The B Boys - You Know We Rock.wav
Pre-gap length 0:00:02.00
Peak level 100.0 %
Track quality 100.0 %
Test CRC 8C7B1ED7
Copy CRC 8C7B1ED7
Track not present in AccurateRip database
Copy OK
Track 2
Filename P:\ T\ What\A\VA - [2009] - Nu Electro Vol. One (cd1) [FLAC]\02 - Cha-os - Records, Turntables (Rap Version).wav
Peak level 100.0 %
Track quality 100.0 %
Test CRC 30DB9D3D
Copy CRC 30DB9D3D
Track not present in AccurateRip database
Copy OK
Track 3
Filename P:\ T\ What\A\VA - [2009] - Nu Electro Vol. One (cd1) [FLAC]\03 - The Egyptian Lover - Do U Wanna Get Down (Deb's Duel of Legends Mix).wav
Peak level 100.0 %
Track quality 100.0 %
Test CRC 777779FF
Copy CRC 777779FF
Track not present in AccurateRip database
Copy OK
Track 4
Filename P:\ T\ What\A\VA - [2009] - Nu Electro Vol. One (cd1) [FLAC]\04 - Dr. Schmidt - The Engines of God.wav
Peak level 100.0 %
Track quality 99.9 %
Test CRC 54E7E986
Copy CRC 54E7E986
Track not present in AccurateRip database
Copy OK
Track 5
Filename P:\ T\ What\A\VA - [2009] - Nu Electro Vol. One (cd1) [FLAC]\05 - Blastromen - Blasteroids.wav
Peak level 100.0 %
Track quality 100.0 %
Test CRC 1FB632F6
Copy CRC 1FB632F6
Track not present in AccurateRip database
Copy OK
Track 6
Filename P:\ T\ What\A\VA - [2009] - Nu Electro Vol. One (cd1) [FLAC]\06 - Newcleus - Programmed 4 L.O.V.E..wav
Peak level 100.0 %
Track quality 100.0 %
Test CRC 16264F75
Copy CRC 16264F75
Track not present in AccurateRip database
Copy OK
Track 7
Filename P:\ T\ What\A\VA - [2009] - Nu Electro Vol. One (cd1) [FLAC]\07 - Darxid - Bass Operator.wav
Peak level 100.0 %
Track quality 100.0 %
Test CRC 53EF1674
Copy CRC 53EF1674
Track not present in AccurateRip database
Copy OK
Track 8
Filename P:\ T\ What\A\VA - [2009] - Nu Electro Vol. One (cd1) [FLAC]\08 - Signal Type - In Abyss (Gods of Technology Remix).wav
Peak level 100.0 %
Track quality 100.0 %
Test CRC 43B51220
Copy CRC 43B51220
Track not present in AccurateRip database
Copy OK
Track 9
Filename P:\ T\ What\A\VA - [2009] - Nu Electro Vol. One (cd1) [FLAC]\09 - Mandroid - Anti-Gravity Machines (Morphogenetic Remix).wav
Peak level 100.0 %
Track quality 100.0 %
Test CRC 2C4BDCA6
Copy CRC 2C4BDCA6
Track not present in AccurateRip database
Copy OK
Track 10
Filename P:\ T\ What\A\VA - [2009] - Nu Electro Vol. One (cd1) [FLAC]\10 - Aux 88 - Space Satellites.wav
Peak level 100.0 %
Track quality 99.9 %
Test CRC 9D6E9067
Copy CRC 9D6E9067
Track not present in AccurateRip database
Copy OK
Track 11
Filename P:\ T\ What\A\VA - [2009] - Nu Electro Vol. One (cd1) [FLAC]\11 - Freddy Fresh (feat. The Bladerunners) - Mastermix.wav
Pre-gap length 0:00:02.00
Peak level 99.4 %
Track quality 100.0 %
Test CRC AFB8D6BF
Copy CRC AFB8D6BF
Track not present in AccurateRip database
Copy OK
None of the tracks are present in the AccurateRip database
No errors occurred
End of status report

EAC Log CD2

Exact Audio Copy V0.99 prebeta 4 from 23. January 2008
EAC extraction logfile from 19. October 2009, 1:10
Various / Nu Electro Vol.1 cd2
Used drive : TSSTcorpCDDVDW SH-S223F Adapter: 5 ID: 0
Read mode : Secure
Utilize accurate stream : Yes
Defeat audio cache : Yes
Make use of C2 pointers : No
Read offset correction : 6
Overread into Lead-In and Lead-Out : No
Fill up missing offset samples with silence : Yes
Delete leading and trailing silent blocks : No
Null samples used in CRC calculations : Yes
Used interface : Native Win32 interface for Win NT & 2000
Gap handling : Appended to previous track
Used output format : User Defined Encoder
Selected bitrate : 1024 kBit/s
Quality : High
Add ID3 tag : No
Command line compressor : C:\Program Files (x86)\Exact Audio Copy\FLAC\FLAC.EXE
Additional command line options : -V -8 -T "artist=%a" -T "title=%t" -T "album=%g" -T "date=%y" -T "tracknumber=%n" -T "genre=%m" %s
TOC of the extracted CD
Track | Start | Length | Start sector | End sector
---------------------------------------------------------
1 | 0:00.00 | 6:09.54 | 0 | 27728
2 | 6:09.54 | 8:22.20 | 27729 | 65398
3 | 14:31.74 | 4:31.08 | 65399 | 85731
4 | 19:03.07 | 5:12.67 | 85732 | 109198
5 | 24:15.74 | 5:33.51 | 109199 | 134224
6 | 29:49.50 | 6:02.56 | 134225 | 161430
7 | 35:52.31 | 5:27.08 | 161431 | 185963
8 | 41:19.39 | 6:27.42 | 185964 | 215030
9 | 47:47.06 | 5:27.10 | 215031 | 239565
10 | 53:14.16 | 6:23.53 | 239566 | 268343
11 | 59:37.69 | 7:03.40 | 268344 | 300108
Track 1
Filename P:\ T\ What\A\VA - [2009] - Nu Electro Vol.1 cd2 [FLAC]\01 - Exzakt - No Disco.wav
Pre-gap length 0:00:02.00
Peak level 100.0 %
Track quality 100.0 %
Test CRC 9C879AA9
Copy CRC 9C879AA9
Track not present in AccurateRip database
Copy OK
Track 2
Filename P:\ T\ What\A\VA - [2009] - Nu Electro Vol.1 cd2 [FLAC]\02 - Invisible Rockers Crew - Electro Empire.wav
Peak level 100.0 %
Track quality 100.0 %
Test CRC 2877DBBA
Copy CRC 2877DBBA
Track not present in AccurateRip database
Copy OK
Track 3
Filename P:\ T\ What\A\VA - [2009] - Nu Electro Vol.1 cd2 [FLAC]\03 - Dynamic Bass System - Side by Side.wav
Peak level 100.0 %
Track quality 100.0 %
Test CRC 24E807EF
Copy CRC 24E807EF
Track not present in AccurateRip database
Copy OK
Track 4
Filename P:\ T\ What\A\VA - [2009] - Nu Electro Vol.1 cd2 [FLAC]\04 - Zak B - The Real (Hip Hop).wav
Peak level 100.0 %
Track quality 100.0 %
Test CRC AC04BEC9
Copy CRC AC04BEC9
Track not present in AccurateRip database
Copy OK
Track 5
Filename P:\ T\ What\A\VA - [2009] - Nu Electro Vol.1 cd2 [FLAC]\05 - Electronautus - Back in the Day.wav
Peak level 100.0 %
Track quality 100.0 %
Test CRC 7562A47A
Copy CRC 7562A47A
Track not present in AccurateRip database
Copy OK
Track 6
Filename P:\ T\ What\A\VA - [2009] - Nu Electro Vol.1 cd2 [FLAC]\06 - Dark Vektor - Wires.wav
Peak level 100.0 %
Track quality 100.0 %
Test CRC A6FE71E9
Copy CRC A6FE71E9
Track not present in AccurateRip database
Copy OK
Track 7
Filename P:\ T\ What\A\VA - [2009] - Nu Electro Vol.1 cd2 [FLAC]\07 - Debonaire - Watch Me Now.wav
Peak level 100.0 %
Track quality 99.9 %
Test CRC 0F146783
Copy CRC 0F146783
Track not present in AccurateRip database
Copy OK
Track 8
Filename P:\ T\ What\A\VA - [2009] - Nu Electro Vol.1 cd2 [FLAC]\08 - Supreme.Ja - Freak (Street Version).wav
Peak level 100.0 %
Track quality 100.0 %
Test CRC 6054DAA7
Copy CRC 6054DAA7
Track not present in AccurateRip database
Copy OK
Track 9
Filename P:\ T\ What\A\VA - [2009] - Nu Electro Vol.1 cd2 [FLAC]\09 - Steril - Rock the Nation.wav
Peak level 100.0 %
Track quality 100.0 %
Test CRC 8608385D
Copy CRC 8608385D
Track not present in AccurateRip database
Copy OK
Track 10
Filename P:\ T\ What\A\VA - [2009] - Nu Electro Vol.1 cd2 [FLAC]\10 - Bass Junkie - Sub - Sub-Mission (Control the Bass).wav
Peak level 73.3 %
Track quality 100.0 %
Test CRC 6FF3AB1A
Copy CRC 6FF3AB1A
Track not present in AccurateRip database
Copy OK
Track 11
Filename P:\ T\ What\A\VA - [2009] - Nu Electro Vol.1 cd2 [FLAC]\11 - Diplomat - Mastermix.wav
Pre-gap length 0:00:03.00
Peak level 100.0 %
Track quality 100.0 %
Test CRC 1D0D1CA9
Copy CRC 1D0D1CA9
Track not present in AccurateRip database
Copy OK
None of the tracks are present in the AccurateRip database
No errors occurred
End of status report
Вы не можете начинать темы
Вы не можете отвечать на сообщения
Вы не можете редактировать свои сообщения
Вы не можете удалять свои сообщения
Вы не можете голосовать в опросах
Вы не можете прикреплять файлы к сообщениям
Вы можете скачивать файлы
!ВНИМАНИЕ!

Сайт не предоставляет электронные версии произведений, а занимается лишь коллекционированием и каталогизацией ссылок, присылаемых и публикуемых на форуме нашими читателями. Если вы являетесь правообладателем какого-либо представленного материала и не желаете, чтобы ссылка на него находилась в нашем каталоге, свяжитесь с нами, и мы незамедлительно удалим ее. Файлы для обмена на трекере предоставлены пользователями сайта, и администрация не несет ответственности за их содержание. Просьба не заливать файлы, защищенные авторскими правами, а также файлы нелегального содержания!

Искали программы, игры, дополнения, музыка mp3, аниме, аудио книги, журналы? Добро пожаловать на свободный торрент трекер Torrents, у нас можно скачать бесплатно, без смс и регистрации и прочих ограничений лучшие, отборные сборки программ, игр. Скачать торрентом не составит труда даже не опытному пользователю. Раздачи ежедневно обновляются, только лучшие и качественные раздачи, подробные описания и скриншоты. Огромная коллекция программ для работы со звуком, графикой, дизайном, а так же множество плагинов и инструментов к ним с подробной инструкцией и рекомендациями. Прошивки для навигаторов, карты. Разнообразные игры, для Windows, Linux. В коллекцие есть и старые игры любых жанров, Rpg, Action, Shooter, strategy Множество дополнений, модификаций, сценариев для популярных игр в жанре экш, рпг, гонки, стратегии, логические игры. Множество аддонов и сценариев для Microsoft Flight Simulator Большая коллекция книг, учебников. Если нет возможности купить печатное издание - смело скачивайте цифровую версию книги или, быть может, журнала. Не любите читать - можно загрузить бесплатно аудикнигу. Для веб дизайнеров и программистов так же найдется множество специализированного софта, таких как: редакторы с подсветкой, среды программирования, компоненты, системы управления базами данных, разнообразные скрипты и шаблоны. Не так давно у нас появился материал для автолюбителей и владельцев мото - оригинальные и неоригинальные каталоги запчастей, книги и журналы по ремонту и обслуживанию, видеоуроки, статьи по чип тюнингу, прошивкам. Процедура получения контента элементарная, достаточно просто скачать торрент файл и добавить его в загрузку в вашем торрент клиенте. Если у вас нет специального торрент клиента, вы можете его скачать у нас.