(Electro, Techno) Deichkind - Remmidemmi (Yippie Yippie Yeah) - 2006, FLAC (tracks+.cue), lossless 

Цитировать
Deichkind - Remmidemmi (Yippie Yippie Yeah)
Жанр: Electro, Techno
Страна-производитель диска: Germany
Год издания диска: 2006
Издатель (лейбл): Island Records
Номер по каталогу: 9877515
Аудиокодек: FLAC (*.flac)
Тип рипа: tracks+.cue
Битрейт аудио: lossless
Продолжительность: 00:19:43
Источник (релизер): собственный рип
Наличие сканов в содержимом раздачи: да
Треклист:
01. Remmidemmi (Yippie Yippie Yeah) (Single Edit) (3:45)
02. Remmidemmi (Yippie Yippie Yeah) (Egoexpress Remix D) (5:43)
03. Remmidemmi (Yippie Yippie Yeah) (Scooter Remix) (5:52)
04. Voodoo (Album Version) (4:24)

+ Ein Kleines Kaminfeuer (7:17)

Ein Kleines Kaminfeuer (*.mov)

Формат: QuickTime
Видео кодек: Sorensor 3
Аудио кодек: PCM
Видео: Разрешение: 360x288 Кадр/сек: 25,00 Битрейт: 3948 Кбит/сек Фактор качества: 1.523 b/px
Аудио: Количество каналов: 2 Частота дискретизации: 44,1 КГц Битрейт: 1411,2 Кбит/сек

Скриншоты:

Ein Kleines Kaminfeuer (*.mpg)

Формат: MPEG-PS
Видео кодек: MPEG Video
Аудио кодек: MPEG Audio
Видео: Разрешение: 360x288 Кадр/сек: 25,00 Битрейт: 1683 Кбит/сек Фактор качества: 0.649 b/px
Аудио: Количество каналов: 2 Частота дискретизации: 44,1 КГц Битрейт: 192 Кбит/сек

Скриншоты:

Лог создания рипа

Exact Audio Copy V0.99 prebeta 5 from 4. May 2009
EAC extraction logfile from 27. May 2011, 10:32
Deichkind / Remmidemmi (Yippie Yippie Yeah)
Used drive : ASUS DRW-1814BLT Adapter: 1 ID: 0
Read mode : Secure
Utilize accurate stream : Yes
Defeat audio cache : Yes
Make use of C2 pointers : No
Read offset correction : 6
Overread into Lead-In and Lead-Out : No
Fill up missing offset samples with silence : Yes
Delete leading and trailing silent blocks : No
Null samples used in CRC calculations : Yes
Used interface : Native Win32 interface for Win NT & 2000
Gap handling : Appended to previous track
Used output format : User Defined Encoder
Selected bitrate : 1024 kBit/s
Quality : High
Add ID3 tag : No
Command line compressor : C:\Program Files\EAC\FLAC\FLAC.EXE
Additional command line options : -8 -V -T "ARTIST=%a" -T "TITLE=%t" -T "ALBUM=%g" -T "DATE=%y" -T "TRACKNUMBER=%n" -T "GENRE=%m" -T "COMMENT=EAC FLAC -8" %s
TOC of the extracted CD
Track | Start | Length | Start sector | End sector
---------------------------------------------------------
1 | 0:00.00 | 3:44.67 | 0 | 16866
2 | 3:44.67 | 5:42.41 | 16867 | 42557
3 | 9:27.33 | 5:51.60 | 42558 | 68942
4 | 15:19.18 | 4:23.55 | 68943 | 88722
5 | 22:14.73 | 43:11.68 | 100123 | 294515
Track 1
Filename C:\01. Deichkind - Remmidemmi (Yippie Yippie Yeah) (Single Edit).wav
Pre-gap length 0:00:02.00
Peak level 100.0 %
Track quality 100.0 %
Test CRC A6AC8A2B
Copy CRC A6AC8A2B
Accurately ripped (confidence 1) [56AD21BD]
Copy OK
Track 2
Filename C:\02. Deichkind - Remmidemmi (Yippie Yippie Yeah) (Egoexpress Remix D).wav
Pre-gap length 0:00:01.74
Peak level 97.5 %
Track quality 100.0 %
Test CRC D4581027
Copy CRC D4581027
Accurately ripped (confidence 1) [BD1A42E0]
Copy OK
Track 3
Filename C:\03. Deichkind - Remmidemmi (Yippie Yippie Yeah) (Scooter Remix).wav
Pre-gap length 0:00:02.08
Peak level 99.9 %
Track quality 100.0 %
Test CRC 021D8CE1
Copy CRC 021D8CE1
Accurately ripped (confidence 1) [F3C502A6]
Copy OK
Track 4
Filename C:\04. Deichkind - Voodoo (Album Version).wav
Pre-gap length 0:00:01.82
Peak level 100.0 %
Track quality 100.0 %
Test CRC F3ADED58
Copy CRC F3ADED58
Accurately ripped (confidence 1) [51304F77]
Copy OK
All tracks accurately ripped
No errors occurred
End of status report

Содержание индексной карты (.CUE)

REM GENRE Techno
REM DATE 2006
REM DISCID 390F5605
REM COMMENT "ExactAudioCopy v0.99pb5"
PERFORMER "Deichkind"
TITLE "Remmidemmi (Yippie Yippie Yeah)"
FILE "01. Deichkind - Remmidemmi (Yippie Yippie Yeah) (Single Edit).wav" WAVE
TRACK 01 AUDIO
TITLE "Remmidemmi (Yippie Yippie Yeah) (Single Edit)"
PERFORMER "Deichkind"
INDEX 01 00:00:00
TRACK 02 AUDIO
TITLE "Remmidemmi (Yippie Yippie Yeah) (Egoexpress Remix D)"
PERFORMER "Deichkind"
INDEX 00 03:43:11
FILE "02. Deichkind - Remmidemmi (Yippie Yippie Yeah) (Egoexpress Remix D).wav" WAVE
INDEX 01 00:00:00
TRACK 03 AUDIO
TITLE "Remmidemmi (Yippie Yippie Yeah) (Scooter Remix)"
PERFORMER "Deichkind"
INDEX 00 05:40:35
FILE "03. Deichkind - Remmidemmi (Yippie Yippie Yeah) (Scooter Remix).wav" WAVE
INDEX 01 00:00:00
TRACK 04 AUDIO
TITLE "Voodoo (Album Version)"
PERFORMER "Deichkind"
INDEX 00 05:49:73
FILE "04. Deichkind - Voodoo (Album Version).wav" WAVE
INDEX 01 00:00:00
TRACK 05 MODEx/2xxx
TITLE "Ein Kleines Kaminfeuer (Filmchen)"
PERFORMER "Deichkind"
INDEX 00 04:23:55
Вы не можете начинать темы
Вы не можете отвечать на сообщения
Вы не можете редактировать свои сообщения
Вы не можете удалять свои сообщения
Вы не можете голосовать в опросах
Вы не можете прикреплять файлы к сообщениям
Вы можете скачивать файлы
!ВНИМАНИЕ!

Сайт не предоставляет электронные версии произведений, а занимается лишь коллекционированием и каталогизацией ссылок, присылаемых и публикуемых на форуме нашими читателями. Если вы являетесь правообладателем какого-либо представленного материала и не желаете, чтобы ссылка на него находилась в нашем каталоге, свяжитесь с нами, и мы незамедлительно удалим ее. Файлы для обмена на трекере предоставлены пользователями сайта, и администрация не несет ответственности за их содержание. Просьба не заливать файлы, защищенные авторскими правами, а также файлы нелегального содержания!

Искали программы, игры, дополнения, музыка mp3, аниме, аудио книги, журналы? Добро пожаловать на свободный торрент трекер Torrents, у нас можно скачать бесплатно, без смс и регистрации и прочих ограничений лучшие, отборные сборки программ, игр. Скачать торрентом не составит труда даже не опытному пользователю. Раздачи ежедневно обновляются, только лучшие и качественные раздачи, подробные описания и скриншоты. Огромная коллекция программ для работы со звуком, графикой, дизайном, а так же множество плагинов и инструментов к ним с подробной инструкцией и рекомендациями. Прошивки для навигаторов, карты. Разнообразные игры, для Windows, Linux. В коллекцие есть и старые игры любых жанров, Rpg, Action, Shooter, strategy Множество дополнений, модификаций, сценариев для популярных игр в жанре экш, рпг, гонки, стратегии, логические игры. Множество аддонов и сценариев для Microsoft Flight Simulator Большая коллекция книг, учебников. Если нет возможности купить печатное издание - смело скачивайте цифровую версию книги или, быть может, журнала. Не любите читать - можно загрузить бесплатно аудикнигу. Для веб дизайнеров и программистов так же найдется множество специализированного софта, таких как: редакторы с подсветкой, среды программирования, компоненты, системы управления базами данных, разнообразные скрипты и шаблоны. Не так давно у нас появился материал для автолюбителей и владельцев мото - оригинальные и неоригинальные каталоги запчастей, книги и журналы по ремонту и обслуживанию, видеоуроки, статьи по чип тюнингу, прошивкам. Процедура получения контента элементарная, достаточно просто скачать торрент файл и добавить его в загрузку в вашем торрент клиенте. Если у вас нет специального торрент клиента, вы можете его скачать у нас.