(Freestyle, Electro) [CD] VA - Freestyle Party Vol. 8 - 2005, (MNF Records - [MNF-0619-2]), FLAC (image+.cue), lossless 

Цитировать
Various Artists - Freestyle Party Vol. 8
Жанр: Freestyle, Electro
Носитель: CD
Страна-производитель диска: Germany
Год издания: 2005
Издатель (лейбл): MNF Records
Номер по каталогу: MNF-0619-2
Аудиокодек: FLAC (*.flac)
Тип рипа: image+.cue
Битрейт аудио: lossless
Продолжительность: 1:10:29
Источник (релизер): Диск из личной коллекции
Наличие сканов в содержимом раздачи: да
Треклист:
01. Pandera – Celebrate Da Summertime (Short Freestyle Project Remix) (3:55)
02. Freestyle Project – Get Up And Party (Short Cut) (3:59)
03. Anthony Norris – Funky Beat (Short Cut) (3:38)
04. Bubble J. – Time Don't Fool (Short Cut) (3:38)
05. Freestyle Crew, The – Let's Jam Tonight (Short Cut) (3:59)
06. N.Y. City Beats – N.Y. City Beats (Short Cut) (3:48)
07. Patricia Simon – Summer Freak Time (Short Cut) (4:13)
08. Freestyle Project – Pump This Party (Short Cut) (3:42)
09. Sweet TB – Let Me Fly (Short Cut) (3:47)
10. Smash – The Smash Megamix (Short Cut) (3:57)
11. Patricia Simon – You Make Me Smile (Short Cut) (3:51)
12. Anthony Norris – Why (Short Cut) (4:46)
13. Das Atom – Radioaktiv (Short Electro Mix) (4:16)
Bonus Traxx
14. Mambo Rebels, The – Dixie (Short Cut) (3:12)
15. DJ Mekka – Caliente Di Sol (Sunshine House Mix) (3:58)
16. Pandera – I Love You Baby (Radio Mix) (3:39)
17. Black Power – The Finer Things In Life (Radio Mix) (3:44)
18. Da Realnis – It's A Mystery (Radio Mix) (4:00)-

Лог создания рипа

Exact Audio Copy V0.99 prebeta 4 from 23. January 2008
Отчёт EAC об извлечении, выполненном 27. декабря 2013, 20:45
Various / Freestyle Party Vol.8
Дисковод: Optiarc DVD RW AD-7261S Adapter: 1 ID: 1
Режим чтения : Достоверность
Использование точного потока : Да
Отключение кэша аудио : Да
Использование указателей C2 : Нет
Коррекция смещения при чтении : 48
Способность читать области Lead-in и Lead-out : Нет
Заполнение пропущенных сэмплов тишиной : Да
Удаление блоков с тишиной в начале и конце : Нет
При вычислениях CRC использовались нулевые сэмплы : Да
Интерфейс : Встроенный Win32-интерфейс для Win NT/2000
Выходной формат : Внутренние WAV-операции
Формат сэмплов : 44.100 Гц; 16 бит; стерео
TOC извлечённого CD
Трек | Старт | Длительность | Начальный сектор | Конечный сектор
---------------------------------------------------------------------
1 | 0:00.00 | 3:55.05 | 0 | 17629
2 | 3:55.05 | 3:58.57 | 17630 | 35536
3 | 7:53.62 | 4:06.74 | 35537 | 54060
4 | 12:00.61 | 3:37.69 | 54061 | 70404
5 | 15:38.55 | 3:57.63 | 70405 | 88242
6 | 19:36.43 | 3:47.68 | 88243 | 105335
7 | 23:24.36 | 4:12.72 | 105336 | 124307
8 | 27:37.33 | 3:41.73 | 124308 | 140955
9 | 31:19.31 | 3:46.03 | 140956 | 157908
10 | 35:05.34 | 3:56.40 | 157909 | 175648
11 | 39:01.74 | 3:50.70 | 175649 | 192968
12 | 42:52.69 | 4:46.04 | 192969 | 214422
13 | 47:38.73 | 4:16.22 | 214423 | 233644
14 | 51:55.20 | 3:12.21 | 233645 | 248065
15 | 55:07.41 | 3:57.22 | 248066 | 265862
16 | 59:04.63 | 3:38.51 | 265863 | 282263
17 | 62:43.39 | 3:45.27 | 282264 | 299165
18 | 66:28.66 | 3:59.65 | 299166 | 317155
Характеристики диапазона извлечения и сообщения об ошибках
Выбранный диапазон
Имя файла C:\Users\Meijin\Desktop\Новая папка (4)\Various - Freestyle Party Vol.8.wav
Пиковый уровень 97.7 %
Качество диапазона 100.0 %
CRC теста 709BFE25
CRC копии 709BFE25
Копирование... OK
Ошибок не произошло
AccurateRip: сводка
Трек 1 точность не определена (достоверность 1) [64E0DB37], AccurateRip вернул [16FAA982]
Трек 2 точность не определена (достоверность 1) [FEFE33B3], AccurateRip вернул [73D015FD]
Трек 3 точность не определена (достоверность 1) [6A0E134D], AccurateRip вернул [540D4F59]
Трек 4 точность не определена (достоверность 1) [7F296907], AccurateRip вернул [BE0FCECA]
Трек 5 точность не определена (достоверность 1) [EF04DED9], AccurateRip вернул [1FD7AC12]
Трек 6 точность не определена (достоверность 1) [3360D50E], AccurateRip вернул [3ED2F72B]
Трек 7 точность не определена (достоверность 1) [37F914DE], AccurateRip вернул [CF81B7A9]
Трек 8 точность не определена (достоверность 1) [EC9B018B], AccurateRip вернул [9C40A216]
Трек 9 точность не определена (достоверность 1) [9036F810], AccurateRip вернул [D40A56E5]
Трек 10 точность не определена (достоверность 1) [AB1389A4], AccurateRip вернул [2FC83149]
Трек 11 точность не определена (достоверность 1) [64F71EF9], AccurateRip вернул [F42DE5AB]
Трек 12 точность не определена (достоверность 1) [A3762995], AccurateRip вернул [15123AFA]
Трек 13 точность не определена (достоверность 1) [A59051F0], AccurateRip вернул [377DE97F]
Трек 14 точность не определена (достоверность 1) [4C8723F0], AccurateRip вернул [6644B8ED]
Трек 15 точность не определена (достоверность 1) [6B2B9B64], AccurateRip вернул [1FFB7165]
Трек 16 точность не определена (достоверность 1) [62991D4F], AccurateRip вернул [B21BF5F5]
Трек 17 точность не определена (достоверность 1) [8A7405C5], AccurateRip вернул [0806D0F5]
Трек 18 точность не определена (достоверность 1) [6AA616B4], AccurateRip вернул [2316ADEA]
Ни один трек не прошёл проверки на точность
В вашей базе может быть иной вариант штамповки диска
Конец отчёта
Вы не можете начинать темы
Вы не можете отвечать на сообщения
Вы не можете редактировать свои сообщения
Вы не можете удалять свои сообщения
Вы не можете голосовать в опросах
Вы не можете прикреплять файлы к сообщениям
Вы можете скачивать файлы
!ВНИМАНИЕ!

Сайт не предоставляет электронные версии произведений, а занимается лишь коллекционированием и каталогизацией ссылок, присылаемых и публикуемых на форуме нашими читателями. Если вы являетесь правообладателем какого-либо представленного материала и не желаете, чтобы ссылка на него находилась в нашем каталоге, свяжитесь с нами, и мы незамедлительно удалим ее. Файлы для обмена на трекере предоставлены пользователями сайта, и администрация не несет ответственности за их содержание. Просьба не заливать файлы, защищенные авторскими правами, а также файлы нелегального содержания!

Искали программы, игры, дополнения, музыка mp3, аниме, аудио книги, журналы? Добро пожаловать на свободный торрент трекер Torrents, у нас можно скачать бесплатно, без смс и регистрации и прочих ограничений лучшие, отборные сборки программ, игр. Скачать торрентом не составит труда даже не опытному пользователю. Раздачи ежедневно обновляются, только лучшие и качественные раздачи, подробные описания и скриншоты. Огромная коллекция программ для работы со звуком, графикой, дизайном, а так же множество плагинов и инструментов к ним с подробной инструкцией и рекомендациями. Прошивки для навигаторов, карты. Разнообразные игры, для Windows, Linux. В коллекцие есть и старые игры любых жанров, Rpg, Action, Shooter, strategy Множество дополнений, модификаций, сценариев для популярных игр в жанре экш, рпг, гонки, стратегии, логические игры. Множество аддонов и сценариев для Microsoft Flight Simulator Большая коллекция книг, учебников. Если нет возможности купить печатное издание - смело скачивайте цифровую версию книги или, быть может, журнала. Не любите читать - можно загрузить бесплатно аудикнигу. Для веб дизайнеров и программистов так же найдется множество специализированного софта, таких как: редакторы с подсветкой, среды программирования, компоненты, системы управления базами данных, разнообразные скрипты и шаблоны. Не так давно у нас появился материал для автолюбителей и владельцев мото - оригинальные и неоригинальные каталоги запчастей, книги и журналы по ремонту и обслуживанию, видеоуроки, статьи по чип тюнингу, прошивкам. Процедура получения контента элементарная, достаточно просто скачать торрент файл и добавить его в загрузку в вашем торрент клиенте. Если у вас нет специального торрент клиента, вы можете его скачать у нас.