(Breakbeat / Electropop / Dance) Music Instructor - Hands In The Air (CD, Maxi-Single) - 1996, FLAC (image+.cue) lossless 

Цитировать
Music Instructor - Hands In The Air
Жанр: Breakbeat / Electropop / Dance
Страна-производитель диска: Holland
Год издания диска: 1996
Издатель (лейбл): CDL - Cologne Dance Label / EMI ELECTROLA
Номер по каталогу: 7243 8 82692 2 3
Страна: Germany
Аудио кодек: FLAC (*.flac)
Тип рипа: image+.cue
Режим рипа: test & copy
Битрейт аудио: lossless
Продолжительность: 00:21:01
Источник (релизер): sewerok
Наличие сканов в содержимом раздачи: да / 600 dpi
Треклист:
01. Hands In The Air (Original Mix) [0:03:57.53]
02. Hands In The Air (Van Gelden Mix) [0:05:17.32]
03. Hands In The Air (Space Hunter Mix) [0:05:55.18]
04. Hands In The Air (Transform Mix) [0:05:50.70]

MUSIC INSTRUCTOR * HANDS IN THE AIR * 7243 8 82692 2 3

Лог создания рипа (EAC)

Exact Audio Copy V0.99 prebeta 5 from 4. May 2009
EAC extraction logfile from 30. November 2010, 21:24
Music Instructor / Hands In The Air
Used drive : SlimtypeBD E DS4E1S Adapter: 0 ID: 1
Read mode : Secure
Utilize accurate stream : Yes
Defeat audio cache : Yes
Make use of C2 pointers : No
Read offset correction : 6
Overread into Lead-In and Lead-Out : No
Fill up missing offset samples with silence : Yes
Delete leading and trailing silent blocks : No
Null samples used in CRC calculations : Yes
Used interface : Native Win32 interface for Win NT & 2000
Used output format : User Defined Encoder
Selected bitrate : 768 kBit/s
Quality : High
Add ID3 tag : No
Command line compressor : C:\Program Files (x86)\Exact Audio Copy\Flac\flac.exe
Additional command line options : -8 -V -T "DATE=%y" -T "GENRE=%m" %s
TOC of the extracted CD
Track | Start | Length | Start sector | End sector
---------------------------------------------------------
1 | 0:00.00 | 3:57.53 | 0 | 17827
2 | 3:57.53 | 5:17.32 | 17828 | 41634
3 | 9:15.10 | 5:55.18 | 41635 | 68277
4 | 15:10.28 | 5:50.70 | 68278 | 94597
Range status and errors
Selected range
Filename F:\01. Music\Music Instructor - Hands In The Air [1996] [Lossless]\Music Instructor - Hands In The Air.wav
Peak level 98.8 %
Range quality 100.0 %
Test CRC 594D7358
Copy CRC 594D7358
Copy OK
No errors occurred
AccurateRip summary
Track 1 accurately ripped (confidence 7) [7E2D8671]
Track 2 accurately ripped (confidence 7) [86EFC0E1]
Track 3 accurately ripped (confidence 7) [CCEC5A9B]
Track 4 accurately ripped (confidence 7) [C2DD9871]
All tracks accurately ripped
End of status report
Вы не можете начинать темы
Вы не можете отвечать на сообщения
Вы не можете редактировать свои сообщения
Вы не можете удалять свои сообщения
Вы не можете голосовать в опросах
Вы не можете прикреплять файлы к сообщениям
Вы можете скачивать файлы
!ВНИМАНИЕ!

Сайт не предоставляет электронные версии произведений, а занимается лишь коллекционированием и каталогизацией ссылок, присылаемых и публикуемых на форуме нашими читателями. Если вы являетесь правообладателем какого-либо представленного материала и не желаете, чтобы ссылка на него находилась в нашем каталоге, свяжитесь с нами, и мы незамедлительно удалим ее. Файлы для обмена на трекере предоставлены пользователями сайта, и администрация не несет ответственности за их содержание. Просьба не заливать файлы, защищенные авторскими правами, а также файлы нелегального содержания!

Искали программы, игры, дополнения, музыка mp3, аниме, аудио книги, журналы? Добро пожаловать на свободный торрент трекер Torrents, у нас можно скачать бесплатно, без смс и регистрации и прочих ограничений лучшие, отборные сборки программ, игр. Скачать торрентом не составит труда даже не опытному пользователю. Раздачи ежедневно обновляются, только лучшие и качественные раздачи, подробные описания и скриншоты. Огромная коллекция программ для работы со звуком, графикой, дизайном, а так же множество плагинов и инструментов к ним с подробной инструкцией и рекомендациями. Прошивки для навигаторов, карты. Разнообразные игры, для Windows, Linux. В коллекцие есть и старые игры любых жанров, Rpg, Action, Shooter, strategy Множество дополнений, модификаций, сценариев для популярных игр в жанре экш, рпг, гонки, стратегии, логические игры. Множество аддонов и сценариев для Microsoft Flight Simulator Большая коллекция книг, учебников. Если нет возможности купить печатное издание - смело скачивайте цифровую версию книги или, быть может, журнала. Не любите читать - можно загрузить бесплатно аудикнигу. Для веб дизайнеров и программистов так же найдется множество специализированного софта, таких как: редакторы с подсветкой, среды программирования, компоненты, системы управления базами данных, разнообразные скрипты и шаблоны. Не так давно у нас появился материал для автолюбителей и владельцев мото - оригинальные и неоригинальные каталоги запчастей, книги и журналы по ремонту и обслуживанию, видеоуроки, статьи по чип тюнингу, прошивкам. Процедура получения контента элементарная, достаточно просто скачать торрент файл и добавить его в загрузку в вашем торрент клиенте. Если у вас нет специального торрент клиента, вы можете его скачать у нас.