Александр Невский (Сергей Эйзенштейн, Дмитрий Васильев) [1938, СССР, исторический, BDRip 720p] Original Rus + Sub Eng 

Цитировать
Александр Невский
Страна: СССР
Студия: Московская Ордена Ленина киностудия "Мосфильм"
Жанр: исторический
Год выпуска: 1938
Продолжительность: 01:47:45
Перевод: Не требуется
Субтитры: английские
Оригинальная аудиодорожка: русский
Режиссер: Сергей Эйзенштейн, Дмитрий Васильев
В ролях: Николай Черкасов, Николай Охлопков, Андрей Абрикосов, Дмитрий Орлов, Николай Арский, Варвара Массалитинова, Валентина Ивашева, Александра Данилова, Владимир Ершов, Сергей Блинников, Иван Лагутин, Лев Фенин, Наум Рогожин, Николай Апарин, Леонид Иудов, Фёдор Одиноков, Иван Клюквин, Николай Тарасов, Лян-Кун, Павел Пашков, Федор Одиноков, Василий Новиков
Описание: Историко-биографический фильм о великом русском полководце князе Александре Ярославиче Невском, под началом которого русские воины одержали в 1242 году историческую победу в битве с ливонскими рыцарями на Чудском озере.
Доп. информация: Рип найден в сети и сделан с этого исходника - http://rutracker.org/forum/viewtopic.php?t=5428795
Сэмпл: http://multi-up.com/1164613
Тип релиза: BDRip 720p
Контейнер: MKV
Видео: 7500 Кбит/сек, 986*720 (4:3), 24,000 кадра/сек, AVC
Аудио: Русский, 224 Кбит/сек, 48,0 КГц, 2 канала, AC-3
Формат субтитров: UTF

MediaInfo

Общее
Уникальный идентификатор : 247697457312191565537832651299934171044 (0xBA58CB8656FE0B0AAE952DDCB13BEFA4)
Полное имя : H:\MONAR\Видео\Художественные фильмы\Советское кино\Александр Невский (1938).mkv
Формат : Matroska
Версия формата : Version 4 / Version 2
Размер файла : 5,81 Гбайт
Продолжительность : 1 ч. 47 м.
Общий поток : 7724 Кбит/сек
Дата кодирования : UTC 2017-08-12 10:07:13
Программа кодирования : mkvmerge v13.0.0 ('The Juggler') 64bit
Библиотека кодирования : libebml v1.3.4 + libmatroska v1.4.5
Видео
Идентификатор : 1
Формат : AVC
Формат/Информация : Advanced Video Codec
Профиль формата : High@L4.1
Параметр CABAC формата : Да
Параметр RefFrames формата : 11 кадров
Идентификатор кодека : V_MPEG4/ISO/AVC
Продолжительность : 1 ч. 47 м.
Битрейт : 7500 Кбит/сек
Ширина : 986 пикселей
Высота : 720 пикселей
Соотношение сторон : 4:3
Режим частоты кадров : Постоянный
Частота кадров : 24,000 кадра/сек
Цветовое пространство : YUV
Субдискретизация насыщенности : 4:2:0
Битовая глубина : 8 бит
Тип развёртки : Прогрессивная
Бит/(Пиксели*Кадры) : 0.440
Размер потока : 5,64 Гбайт (97%)
Библиотека кодирования : x264 core 152 r2851 ba24899
Настройки программы : cabac=1 / ref=11 / deblock=1:-3:-3 / analyse=0x3:0x133 / me=umh / subme=10 / psy=1 / psy_rd=0.95:0.00 / mixed_ref=1 / me_range=24 / chroma_me=1 / trellis=2 / 8x8dct=1 / cqm=0 / deadzone=21,11 / fast_pskip=0 / chroma_qp_offset=-2 / threads=6 / lookahead_threads=1 / sliced_threads=0 / nr=0 / decimate=0 / interlaced=0 / bluray_compat=0 / constrained_intra=0 / bframes=11 / b_pyramid=2 / b_adapt=2 / b_bias=0 / direct=3 / weightb=1 / open_gop=0 / weightp=2 / keyint=250 / keyint_min=24 / scenecut=40 / intra_refresh=0 / rc=2pass / mbtree=0 / bitrate=7500 / ratetol=1.0 / qcomp=0.60 / qpmin=0 / qpmax=69 / qpstep=4 / cplxblur=20.0 / qblur=0.5 / ip_ratio=1.30 / pb_ratio=1.20 / aq=3:0.65
Язык : Russian
Default : Да
Forced : Нет
Аудио
Идентификатор : 2
Формат : AC-3
Формат/Информация : Audio Coding 3
Параметр Endianness формата : Big
Идентификатор кодека : A_AC3
Продолжительность : 1 ч. 47 м.
Вид битрейта : Постоянный
Битрейт : 224 Кбит/сек
Каналы : 2 канала
Расположение каналов : Front: L R
Частота : 48,0 КГц
Частота кадров : 31,250 кадров/сек (1536 SPF)
Битовая глубина : 16 бит
Метод сжатия : С потерями
Размер потока : 173 Мбайт (3%)
Язык : Russian
ServiceKind/String : Complete Main
Default : Да
Forced : Нет
Текст
Идентификатор : 3
Формат : UTF-8
Идентификатор кодека : S_TEXT/UTF8
Идентификатор кодека/Информация : UTF-8 Plain Text
Продолжительность : 1 ч. 47 м.
Битрейт : 24 бит/сек
ElementCount : 468
Размер потока : 19,0 Кбайт (0%)
Язык : English
Default : Нет
Forced : Нет
Меню
00:00:00.000 : en:00:00:00.000
00:02:00.458 : en:00:02:00.458
00:11:36.458 : en:00:11:36.458
00:20:15.125 : en:00:20:15.125
00:30:11.416 : en:00:30:11.416
00:34:43.583 : en:00:34:43.583
00:37:10.208 : en:00:37:10.208
00:43:45.666 : en:00:43:45.666
00:50:43.333 : en:00:50:43.333
00:55:15.750 : en:00:55:15.750
00:58:52.583 : en:00:58:52.583
01:01:22.375 : en:01:01:22.375
01:04:29.041 : en:01:04:29.041
01:11:06.541 : en:01:11:06.541
01:17:33.125 : en:01:17:33.125
01:25:26.583 : en:01:25:26.583
01:33:06.166 : en:01:33:06.166
01:38:39.208 : en:01:38:39.208

Скриншоты

Вы не можете начинать темы
Вы не можете отвечать на сообщения
Вы не можете редактировать свои сообщения
Вы не можете удалять свои сообщения
Вы не можете голосовать в опросах
Вы не можете прикреплять файлы к сообщениям
Вы можете скачивать файлы
!ВНИМАНИЕ!

Сайт не предоставляет электронные версии произведений, а занимается лишь коллекционированием и каталогизацией ссылок, присылаемых и публикуемых на форуме нашими читателями. Если вы являетесь правообладателем какого-либо представленного материала и не желаете, чтобы ссылка на него находилась в нашем каталоге, свяжитесь с нами, и мы незамедлительно удалим ее. Файлы для обмена на трекере предоставлены пользователями сайта, и администрация не несет ответственности за их содержание. Просьба не заливать файлы, защищенные авторскими правами, а также файлы нелегального содержания!

Искали программы, игры, дополнения, музыка mp3, аниме, аудио книги, журналы? Добро пожаловать на свободный торрент трекер Torrents, у нас можно скачать бесплатно, без смс и регистрации и прочих ограничений лучшие, отборные сборки программ, игр. Скачать торрентом не составит труда даже не опытному пользователю. Раздачи ежедневно обновляются, только лучшие и качественные раздачи, подробные описания и скриншоты. Огромная коллекция программ для работы со звуком, графикой, дизайном, а так же множество плагинов и инструментов к ним с подробной инструкцией и рекомендациями. Прошивки для навигаторов, карты. Разнообразные игры, для Windows, Linux. В коллекцие есть и старые игры любых жанров, Rpg, Action, Shooter, strategy Множество дополнений, модификаций, сценариев для популярных игр в жанре экш, рпг, гонки, стратегии, логические игры. Множество аддонов и сценариев для Microsoft Flight Simulator Большая коллекция книг, учебников. Если нет возможности купить печатное издание - смело скачивайте цифровую версию книги или, быть может, журнала. Не любите читать - можно загрузить бесплатно аудикнигу. Для веб дизайнеров и программистов так же найдется множество специализированного софта, таких как: редакторы с подсветкой, среды программирования, компоненты, системы управления базами данных, разнообразные скрипты и шаблоны. Не так давно у нас появился материал для автолюбителей и владельцев мото - оригинальные и неоригинальные каталоги запчастей, книги и журналы по ремонту и обслуживанию, видеоуроки, статьи по чип тюнингу, прошивкам. Процедура получения контента элементарная, достаточно просто скачать торрент файл и добавить его в загрузку в вашем торрент клиенте. Если у вас нет специального торрент клиента, вы можете его скачать у нас.