Тень (Дмитрий Светозаров) [2016, Россия, драма, WEB-DL 1080p] Original Rus 

Цитировать
Тень
Страна: Россия
Студия: АСДС
Жанр: драма
Год выпуска: 2016
Продолжительность: 01:51:23
Перевод: Не требуется
Субтитры: нет
Оригинальная аудиодорожка: русский
Режиссер: Дмитрий Светозаров
В ролях: Михаил Пореченков, Юрий Стоянов, Варвара Щербакова, Павел Чернявский, Сергей Васильев, Анна Степанова, Евгений Катаев, Петр Логачев, Татьяна Тузова, Оксана Базилевич
Описание: История преуспевающего бизнесмена Бориса Гордина, у которого, казалось бы, жизнь удалась. Он молод, красив и имеет все, о чем многие лишь мечтают: успех, семью, большой дом… Но ничто не наполняет его жизнь смыслом, не вызывает подлинный интерес, пока однажды Гордин не находит фотографию звезды немого кино. Его настолько завораживает красота актрисы, что он решает найти современную девушку, похожую на нее. Вероника, которая, как две капли воды, похожа на актрису немого кино Веру Листовскую, живет в старой казарме в маленьком провинциальном городке, работает на лесопилке. За ней ухаживает начинающий писатель, а фактически — бывший зэк Изюмов, которого девушка приютила после освобождения. Ей кажется, что в жизни все всегда будет неизменно серо, пока судьба не стучится в ее дверь со странным и неожиданным предложением…

Sample
Тип релиза: WEB-DL 1080p
Контейнер: MKV
Видео: MPEG4 AVC Video, H264, 16:9, 1920x1080, 24 fps, 5090 kbps
Аудио: Russian (AC3, 6 ch, 384 kbps, 16 bits, 48.0 KHz) - оригинал

MediaInfo

General
Unique ID : 227111747934889296620675089035090428420 (0xAADC21B0FEF28BE2A9BA1042A8838204)
Complete name : E:\Тень 2016 WEB-DL 1080p.mkv
Format : Matroska
Format version : Version 4 / Version 2
File size : 4.35 GiB
Duration : 1h 51mn
Overall bit rate : 5 585 Kbps
Encoded date : UTC 2017-08-19 09:54:05
Writing application : mkvmerge v6.1.0 ('Old Devil') built on Mar 2 2013 14:32:37
Writing library : libebml v1.3.0 + libmatroska v1.4.0
Video
ID : 1
Format : AVC
Format/Info : Advanced Video Codec
Format profile : High@L4.0
Format settings, CABAC : Yes
Format settings, ReFrames : 4 frames
Codec ID : V_MPEG4/ISO/AVC
Duration : 1h 51mn
Bit rate : 5 090 Kbps
Width : 1 920 pixels
Height : 1 080 pixels
Display aspect ratio : 16:9
Frame rate mode : Constant
Frame rate : 24.000 fps
Color space : YUV
Chroma subsampling : 4:2:0
Bit depth : 8 bits
Scan type : Progressive
Bits/(Pixel*Frame) : 0.102
Stream size : 3.96 GiB (91%)
Language : English
Default : Yes
Forced : No
Color primaries : BT.709
Transfer characteristics : BT.709
Matrix coefficients : BT.709
Audio
ID : 2
Format : AC-3
Format/Info : Audio Coding 3
Mode extension : CM (complete main)
Format settings, Endianness : Big
Codec ID : A_AC3
Duration : 1h 51mn
Bit rate mode : Constant
Bit rate : 384 Kbps
Channel count : 6 channels
Channel positions : Front: L C R, Side: L R, LFE
Sampling rate : 48.0 KHz
Bit depth : 16 bits
Compression mode : Lossy
Stream size : 306 MiB (7%)
Language : Russian
Default : Yes
Forced : No
Menu
00:00:00.000 : en:Глава 1
00:07:40.875 : en:Глава 2
00:13:04.958 : en:Глава 3
00:19:44.916 : en:Глава 4
00:24:52.291 : en:Глава 5
00:30:42.166 : en:Глава 6
00:36:34.791 : en:Глава 7
00:42:11.624 : en:Глава 8
00:47:50.999 : en:Глава 9
00:53:35.665 : en:Глава 10
01:01:47.456 : en:Глава 11
01:07:13.456 : en:Глава 12
01:13:15.081 : en:Глава 13
01:21:04.289 : en:Глава 14
01:27:41.789 : en:Глава 15
01:33:18.664 : en:Глава 16
01:40:01.080 : en:Глава 17

Скриншоты


Вы не можете начинать темы
Вы не можете отвечать на сообщения
Вы не можете редактировать свои сообщения
Вы не можете удалять свои сообщения
Вы не можете голосовать в опросах
Вы не можете прикреплять файлы к сообщениям
Вы можете скачивать файлы
!ВНИМАНИЕ!

Сайт не предоставляет электронные версии произведений, а занимается лишь коллекционированием и каталогизацией ссылок, присылаемых и публикуемых на форуме нашими читателями. Если вы являетесь правообладателем какого-либо представленного материала и не желаете, чтобы ссылка на него находилась в нашем каталоге, свяжитесь с нами, и мы незамедлительно удалим ее. Файлы для обмена на трекере предоставлены пользователями сайта, и администрация не несет ответственности за их содержание. Просьба не заливать файлы, защищенные авторскими правами, а также файлы нелегального содержания!

Искали программы, игры, дополнения, музыка mp3, аниме, аудио книги, журналы? Добро пожаловать на свободный торрент трекер Torrents, у нас можно скачать бесплатно, без смс и регистрации и прочих ограничений лучшие, отборные сборки программ, игр. Скачать торрентом не составит труда даже не опытному пользователю. Раздачи ежедневно обновляются, только лучшие и качественные раздачи, подробные описания и скриншоты. Огромная коллекция программ для работы со звуком, графикой, дизайном, а так же множество плагинов и инструментов к ним с подробной инструкцией и рекомендациями. Прошивки для навигаторов, карты. Разнообразные игры, для Windows, Linux. В коллекцие есть и старые игры любых жанров, Rpg, Action, Shooter, strategy Множество дополнений, модификаций, сценариев для популярных игр в жанре экш, рпг, гонки, стратегии, логические игры. Множество аддонов и сценариев для Microsoft Flight Simulator Большая коллекция книг, учебников. Если нет возможности купить печатное издание - смело скачивайте цифровую версию книги или, быть может, журнала. Не любите читать - можно загрузить бесплатно аудикнигу. Для веб дизайнеров и программистов так же найдется множество специализированного софта, таких как: редакторы с подсветкой, среды программирования, компоненты, системы управления базами данных, разнообразные скрипты и шаблоны. Не так давно у нас появился материал для автолюбителей и владельцев мото - оригинальные и неоригинальные каталоги запчастей, книги и журналы по ремонту и обслуживанию, видеоуроки, статьи по чип тюнингу, прошивкам. Процедура получения контента элементарная, достаточно просто скачать торрент файл и добавить его в загрузку в вашем торрент клиенте. Если у вас нет специального торрент клиента, вы можете его скачать у нас.