Исчезновение (Елена Стрижевская) [2007, Россия, Украина, мелодрама, HDTV 1080i] Original Rus 

Цитировать
Исчезновение
Страна: Россия, Украина
Студия: STAR MEDIA, Мостелефильм
Жанр: Мелодрама
Год выпуска: 2007
Продолжительность: 01:30:08
Перевод: Не требуется
Субтитры: нет
Оригинальная аудио дорожка: Русский
Режиссёр: Елена Стрижевская
В ролях: Дмитрий Дюжев, Ольга Сутулова, Елена Доронина (II), Пётр Савченко, Денис Беспалый, Олег Кузнецов, Мария Павлова, Виктория Фишер, Светлана Алексеева, Любовь Омельченко, Геннадий Шныптев, Виктор Борисов, Виктор Бунаков, Николай Сахаров, Наталия Корчагина, Элла Ярошевская, Анастасия Федоркова, Янна Мазазолина, Тимур Пантелеев, Юрий Лазуткин, Серафима Нечаева, Александр Чебанов
Описание: Катя и Сергей — счастливая семейная пара. У них совместный бизнес. Джип последней модели. Квартира в современном доме в центре города. Всё настолько хорошо и благополучно, что супруги уже подумывают о загородном трёхэтажном коттедже с бассейном. Но однажды всё изменилось — Сергей исчез. Катя начинает собственное расследование…
Доп. информация:
Автор релиза -
Источник аудио и видео - HDTV 1080i TS - моя запись с канала Наш Кинороман HD



Сэмпл: http://yadi.sk/i/1_0mpXN_3KqVhX
Рекламы нет!
Качество видео: HDTV 1080i
Формат видео: TS
Видео: MPEG-4, 1920x1080 (16:9), 25.000 fps, 8441 kbps, 0.163 bit/pixel
Аудио 1: Русский MP2, 48000 Гц, 2ch, 192 kbps
Аудио 2: Русский AC3, 48000 Гц, 6ch, 448 kbps

MediaInfo

Общее
Идентификатор : 1 (0x1)
Полное имя : D:\Исчезновение.2008.HDTV.1080i-ylnian.ts
Формат : MPEG-TS
Размер файла : 6,02 Гбайт
Продолжительность : 1 ч. 30 м.
Режим общего битрейта : Переменный
Общий поток : 9560 Кбит/сек
Видео
Идентификатор : 3551 (0xDDF)
Идентификатор меню : 17015 (0x4277)
Формат : AVC
Формат/Информация : Advanced Video Codec
Профиль формата : Main@L4
Параметр CABAC формата : Да
Параметр ReFrames формата : 4 кадра
Идентификатор кодека : 27
Продолжительность : 1 ч. 30 м.
Битрейт : 8441 Кбит/сек
Ширина : 1920 пикселей
Высота : 1080 пикселей
Соотношение сторон : 16:9
Частота кадров : 25,000 кадров/сек
Цветовое пространство : YUV
Субдискретизация насыщенности : 4:2:0
Битовая глубина : 8 бит
Тип развёртки : Чересстрочная
Метод сохранения типа развёртки : Раздельные поля
Порядок развёртки : Верхнее поле первое
Бит/(Пиксели*Кадры) : 0.163
Размер потока : 5,31 Гбайт (88%)
Цветовой диапазон : Limited
Основные цвета : BT.709
Характеристики трансфера : BT.709
Коэффициенты матрицы : BT.709
Аудио #1
Идентификатор : 3552 (0xDE0)
Идентификатор меню : 17015 (0x4277)
Формат : MPEG Audio
Версия формата : Version 1
Профиль формата : Layer 2
Идентификатор кодека : 3
Продолжительность : 1 ч. 30 м.
Вид битрейта : Постоянный
Битрейт : 192 Кбит/сек
Каналы : 2 канала
Частота : 48,0 КГц
Метод сжатия : С потерями
Размер потока : 124 Мбайт (2%)
Язык : Russian
Аудио #2
Идентификатор : 3553 (0xDE1)
Идентификатор меню : 17015 (0x4277)
Формат : AC-3
Формат/Информация : Audio Coding 3
Параметр Endianness формата : Big
Идентификатор кодека : 6
Продолжительность : 1 ч. 30 м.
Вид битрейта : Постоянный
Битрейт : 448 Кбит/сек
Каналы : 6 каналов
Расположение каналов : Front: L C R, Side: L R, LFE
Частота : 48,0 КГц
Частота кадров : 31,250 кадров/сек (1536 spf)
Битовая глубина : 16 бит
Метод сжатия : С потерями
Размер потока : 289 Мбайт (5%)
Язык : Russian
ServiceKind/String : Complete Main

Сравнение

Сравнение скриншотов с DVDRip-ом - http://screenshotcomparison.com/comparison/211535
DVDRip --->>> HDTVRip
--->>>
--->>>
--->>>
Вы не можете начинать темы
Вы не можете отвечать на сообщения
Вы не можете редактировать свои сообщения
Вы не можете удалять свои сообщения
Вы не можете голосовать в опросах
Вы не можете прикреплять файлы к сообщениям
Вы можете скачивать файлы
!ВНИМАНИЕ!

Сайт не предоставляет электронные версии произведений, а занимается лишь коллекционированием и каталогизацией ссылок, присылаемых и публикуемых на форуме нашими читателями. Если вы являетесь правообладателем какого-либо представленного материала и не желаете, чтобы ссылка на него находилась в нашем каталоге, свяжитесь с нами, и мы незамедлительно удалим ее. Файлы для обмена на трекере предоставлены пользователями сайта, и администрация не несет ответственности за их содержание. Просьба не заливать файлы, защищенные авторскими правами, а также файлы нелегального содержания!

Искали программы, игры, дополнения, музыка mp3, аниме, аудио книги, журналы? Добро пожаловать на свободный торрент трекер Torrents, у нас можно скачать бесплатно, без смс и регистрации и прочих ограничений лучшие, отборные сборки программ, игр. Скачать торрентом не составит труда даже не опытному пользователю. Раздачи ежедневно обновляются, только лучшие и качественные раздачи, подробные описания и скриншоты. Огромная коллекция программ для работы со звуком, графикой, дизайном, а так же множество плагинов и инструментов к ним с подробной инструкцией и рекомендациями. Прошивки для навигаторов, карты. Разнообразные игры, для Windows, Linux. В коллекцие есть и старые игры любых жанров, Rpg, Action, Shooter, strategy Множество дополнений, модификаций, сценариев для популярных игр в жанре экш, рпг, гонки, стратегии, логические игры. Множество аддонов и сценариев для Microsoft Flight Simulator Большая коллекция книг, учебников. Если нет возможности купить печатное издание - смело скачивайте цифровую версию книги или, быть может, журнала. Не любите читать - можно загрузить бесплатно аудикнигу. Для веб дизайнеров и программистов так же найдется множество специализированного софта, таких как: редакторы с подсветкой, среды программирования, компоненты, системы управления базами данных, разнообразные скрипты и шаблоны. Не так давно у нас появился материал для автолюбителей и владельцев мото - оригинальные и неоригинальные каталоги запчастей, книги и журналы по ремонту и обслуживанию, видеоуроки, статьи по чип тюнингу, прошивкам. Процедура получения контента элементарная, достаточно просто скачать торрент файл и добавить его в загрузку в вашем торрент клиенте. Если у вас нет специального торрент клиента, вы можете его скачать у нас.