Яна+Янко (Наталья Меркулова) [2017, Россия, комедия, семейный, WEB-DL 1080p] Original Rus 

Цитировать
Яна+Янко
Страна: Россия
Студия: Кинокомпания «Магнум»
Жанр: комедия, семейный
Год выпуска: 2017
Продолжительность: 01:36:33
Перевод: Не требуется
Субтитры: нет
Оригинальная аудиодорожка: русский
Режиссер: Наталья Меркулова
В ролях: Олеся Судзиловская, Даниль Зинатуллин, Максим Виторган, Артур Смольянинов, Владимир Мишуков, Александр Ревва, Тинатин Далакишвили, Екатерина Стеблина, Наталья Иохвидова, Кирилл Каганович
Описание: Яна Титова — успешная женщина, главный редактор гламурного журнала о моде. Яну совершенно не беспокоит, что в тридцать восемь лет у неё нет, ни мужа, ни детей. Но однажды обстоятельства складываются так, что Яне ради пиара приходится стать приемной матерью для маленького детдомовца — цыгана по имени Янко. Усыновляя мальчика на глазах у всей страны и делая из этого настоящее шоу, Яна еще не подозревает, что этот своенравный хулиган перевернет ее жизнь вверх тормашками. Янко будет перечить своей «приемной мамочке» по каждому поводу, срывать ее светские мероприятия, мешать работе, сводить с ума наемных нянь и отваживать от Яны любовников.
Но может быть, этот несносный ребенок послан Яне судьбой не просто так?


Sample
Тип релиза: WEB-DL 1080p
Контейнер: MKV
Видео: MPEG4 AVC Video, H264, 16:9, 1920x804, 24 fps, 4445 kbps
Аудио: Russian (AC3, 6 ch, 384 kbps, 16 bits, 48.0 KHz) - оригинал

MediaInfo

General
Unique ID : 241163401640388913715639614954591904508 (0xB56E61B52FFCBDA798E8F6A5526662FC)
Complete name : E:\Яна+Янко 2017 WEB-DL 1080p.mkv
Format : Matroska
Format version : Version 2
File size : 3.32 GiB
Duration : 1h 36mn
Overall bit rate : 4 927 Kbps
Encoded date : UTC 2017-05-10 20:06:33
Writing application : mkvmerge v8.3.0 ('Over the Horizon') 64bit
Writing library : libebml v1.3.1 + libmatroska v1.4.2
DURATION : 01:36:33.248000000
NUMBER_OF_FRAMES : 181039
NUMBER_OF_BYTES : 278075904
_STATISTICS_WRITING_APP : mkvmerge v8.3.0 ('Over the Horizon') 64bit
_STATISTICS_WRITING_DATE_UTC : 2017-05-10 20:06:33
_STATISTICS_TAGS : BPS DURATION NUMBER_OF_FRAMES NUMBER_OF_BYTES
Video
ID : 1
Format : AVC
Format/Info : Advanced Video Codec
Format profile : High@L4.0
Format settings, CABAC : Yes
Format settings, ReFrames : 5 frames
Codec ID : V_MPEG4/ISO/AVC
Duration : 1h 36mn
Bit rate : 4 445 Kbps
Width : 1 920 pixels
Height : 804 pixels
Display aspect ratio : 2.40:1
Frame rate mode : Constant
Frame rate : 24.000 fps
Color space : YUV
Chroma subsampling : 4:2:0
Bit depth : 8 bits
Scan type : Progressive
Bits/(Pixel*Frame) : 0.120
Stream size : 3.00 GiB (90%)
Language : English
Default : Yes
Forced : No
Color primaries : BT.709
Transfer characteristics : BT.709
Matrix coefficients : BT.709
Audio
ID : 2
Format : AC-3
Format/Info : Audio Coding 3
Mode extension : CM (complete main)
Format settings, Endianness : Big
Codec ID : A_AC3
Duration : 1h 36mn
Bit rate mode : Constant
Bit rate : 384 Kbps
Channel count : 6 channels
Channel positions : Front: L C R, Side: L R, LFE
Sampling rate : 48.0 KHz
Bit depth : 16 bits
Compression mode : Lossy
Stream size : 265 MiB (8%)
Language : Russian
Default : Yes
Forced : No
Menu
00:00:00.000 : en:Глава 1
00:04:53.166 : en:Глава 2
00:09:58.624 : en:Глава 3
00:14:58.207 : en:Глава 4
00:21:44.373 : en:Глава 5
00:27:18.039 : en:Глава 6
00:33:02.039 : en:Глава 7
00:38:15.414 : en:Глава 8
00:42:47.580 : en:Глава 9
00:47:59.413 : en:Глава 10
00:54:11.663 : en:Глава 11
00:58:17.496 : en:Глава 12
01:03:03.704 : en:Глава 13
01:08:51.537 : en:Глава 14
01:13:56.828 : en:Глава 15
01:20:29.369 : en:Глава 16
01:25:37.327 : en:Глава 17
01:29:53.118 : en:Глава 18

Скриншоты


Вы не можете начинать темы
Вы не можете отвечать на сообщения
Вы не можете редактировать свои сообщения
Вы не можете удалять свои сообщения
Вы не можете голосовать в опросах
Вы не можете прикреплять файлы к сообщениям
Вы можете скачивать файлы
!ВНИМАНИЕ!

Сайт не предоставляет электронные версии произведений, а занимается лишь коллекционированием и каталогизацией ссылок, присылаемых и публикуемых на форуме нашими читателями. Если вы являетесь правообладателем какого-либо представленного материала и не желаете, чтобы ссылка на него находилась в нашем каталоге, свяжитесь с нами, и мы незамедлительно удалим ее. Файлы для обмена на трекере предоставлены пользователями сайта, и администрация не несет ответственности за их содержание. Просьба не заливать файлы, защищенные авторскими правами, а также файлы нелегального содержания!

Искали программы, игры, дополнения, музыка mp3, аниме, аудио книги, журналы? Добро пожаловать на свободный торрент трекер Torrents, у нас можно скачать бесплатно, без смс и регистрации и прочих ограничений лучшие, отборные сборки программ, игр. Скачать торрентом не составит труда даже не опытному пользователю. Раздачи ежедневно обновляются, только лучшие и качественные раздачи, подробные описания и скриншоты. Огромная коллекция программ для работы со звуком, графикой, дизайном, а так же множество плагинов и инструментов к ним с подробной инструкцией и рекомендациями. Прошивки для навигаторов, карты. Разнообразные игры, для Windows, Linux. В коллекцие есть и старые игры любых жанров, Rpg, Action, Shooter, strategy Множество дополнений, модификаций, сценариев для популярных игр в жанре экш, рпг, гонки, стратегии, логические игры. Множество аддонов и сценариев для Microsoft Flight Simulator Большая коллекция книг, учебников. Если нет возможности купить печатное издание - смело скачивайте цифровую версию книги или, быть может, журнала. Не любите читать - можно загрузить бесплатно аудикнигу. Для веб дизайнеров и программистов так же найдется множество специализированного софта, таких как: редакторы с подсветкой, среды программирования, компоненты, системы управления базами данных, разнообразные скрипты и шаблоны. Не так давно у нас появился материал для автолюбителей и владельцев мото - оригинальные и неоригинальные каталоги запчастей, книги и журналы по ремонту и обслуживанию, видеоуроки, статьи по чип тюнингу, прошивкам. Процедура получения контента элементарная, достаточно просто скачать торрент файл и добавить его в загрузку в вашем торрент клиенте. Если у вас нет специального торрент клиента, вы можете его скачать у нас.