(Freestyle, Electro) [CD] Music Instructor Feat. Dean - Super Fly (Upper MC) - 2000, FLAC (image+.cue), lossless 

Цитировать
Music Instructor Feat. Dean - Super Fly (Upper MC)

Жанр: Freestyle, Electro
Носитель: CD
Страна-производитель диска (релиза): Germany
Год издания: 2000
Издатель (лейбл): Fuel Records / Triple M
Номер по каталогу: 8573-84731-2 / 8573-84731-2
Аудиокодек: FLAC (*.flac)
Тип рипа: image+.cue
Битрейт аудио: lossless
Продолжительность: 01:19:45
Источник (релизер): Unofficial Release
Наличие сканов в содержимом раздачи: Да
Треклист:
01. Super Fly
02. Dream In My Fantasy
03. Planet Earth
04. Electric City
05. Let The Music Play
06. Breakdance
07. Jam On It
08. Technical Lover
09. Don`t Stop The Rock
10. Super Sonic
11. Galaxy Jam
12. Pack Jam
13. Rock Your Body
14. Get Freacky
15. We Are The Robots
16. Mega Mix
17. Super Fly (Upper MC) (Single Edit)
18. Super Fly (Upper MC) (Genlog Remix)

Лог создания рипа
Exact Audio Copy V1.1 from 23. June 2015
EAC extraction logfile from 6. November 2017, 3:25
Music Instructor Feat. Dean / Super Fly (Upper MC)
Used drive : Optiarc DVD RW AD-7740H Adapter: 1 ID: 0
Read mode : Secure
Utilize accurate stream : Yes
Defeat audio cache : Yes
Make use of C2 pointers : No
Read offset correction : 48
Overread into Lead-In and Lead-Out : No
Fill up missing offset samples with silence : Yes
Delete leading and trailing silent blocks : No
Null samples used in CRC calculations : Yes
Used interface : Native Win32 interface for Win NT & 2000
Used output format : User Defined Encoder
Selected bitrate : 1024 kBit/s
Quality : High
Add ID3 tag : No
Command line compressor : C:\Program Files (x86)\Exact Audio Copy\Flac\flac.exe
Additional command line options : -V -8 -T "Date=%year%" -T "Genre=%genre%" %source%
TOC of the extracted CD
Track | Start | Length | Start sector | End sector
---------------------------------------------------------
1 | 0:00.00 | 3:43.50 | 0 | 16774
2 | 3:43.50 | 5:31.47 | 16775 | 41646
3 | 9:15.22 | 5:04.61 | 41647 | 64507
4 | 14:20.08 | 4:52.01 | 64508 | 86408
5 | 19:12.09 | 3:56.22 | 86409 | 104130
6 | 23:08.31 | 4:30.13 | 104131 | 124393
7 | 27:38.44 | 3:44.56 | 124394 | 141249
8 | 31:23.25 | 4:38.59 | 141250 | 162158
9 | 36:02.09 | 3:46.46 | 162159 | 179154
10 | 39:48.55 | 3:37.58 | 179155 | 195487
11 | 43:26.38 | 5:14.05 | 195488 | 219042
12 | 48:40.43 | 3:38.39 | 219043 | 235431
13 | 52:19.07 | 3:32.22 | 235432 | 251353
14 | 55:51.29 | 3:11.03 | 251354 | 265681
15 | 59:02.32 | 3:23.26 | 265682 | 280932
16 | 62:25.58 | 9:34.31 | 280933 | 324013
17 | 72:00.14 | 3:43.67 | 324014 | 340805
18 | 75:44.06 | 4:01.12 | 340806 | 358892
Range status and errors
Selected range
Filename C:\s.O.s\2000 - Music Instructor Feat. Dean - Super Fly (Upper MC).wav
Peak level 100.0 %
Extraction speed 2.3 X
Range quality 100.0 %
Test CRC 835AB699
Copy CRC 835AB699
Copy OK
No errors occurred
AccurateRip summary
Track 1 not present in database
Track 2 not present in database
Track 3 not present in database
Track 4 not present in database
Track 5 not present in database
Track 6 not present in database
Track 7 not present in database
Track 8 not present in database
Track 9 not present in database
Track 10 not present in database
Track 11 not present in database
Track 12 not present in database
Track 13 not present in database
Track 14 not present in database
Track 15 not present in database
Track 16 not present in database
Track 17 not present in database
Track 18 not present in database
None of the tracks are present in the AccurateRip database
End of status report
==== Log checksum F8D73BD446912295C6FDD8F5A9604CC2766E5B3598F7F22AA27B7BF1C20DE49D ====

Содержание индексной карты (.CUE)

REM GENRE Freestyle
REM DATE 2000
REM DISCID FB12B112
REM COMMENT "ExactAudioCopy v1.1"
PERFORMER "Music Instructor Feat. Dean"
TITLE "Super Fly (Upper MC)"
FILE "2000 - Music Instructor Feat. Dean - Super Fly (Upper MC).flac" WAVE
TRACK 01 AUDIO
TITLE "Super Fly"
PERFORMER "Music Instructor Feat. Dean"
INDEX 01 00:00:00
TRACK 02 AUDIO
TITLE "Dream In My Fantasy"
PERFORMER "Music Instructor Feat. Dean"
INDEX 01 03:43:50
TRACK 03 AUDIO
TITLE "Planet Earth"
PERFORMER "Music Instructor Feat. Dean"
INDEX 01 09:15:22
TRACK 04 AUDIO
TITLE "Electric City"
PERFORMER "Music Instructor Feat. Dean"
INDEX 01 14:20:08
TRACK 05 AUDIO
TITLE "Let The Music Play"
PERFORMER "Music Instructor Feat. Dean"
INDEX 01 19:12:09
TRACK 06 AUDIO
TITLE "Breakdance"
PERFORMER "Music Instructor Feat. Dean"
INDEX 01 23:08:31
TRACK 07 AUDIO
TITLE "Jam On It"
PERFORMER "Music Instructor Feat. Dean"
INDEX 01 27:38:44
TRACK 08 AUDIO
TITLE "Technical Lover"
PERFORMER "Music Instructor Feat. Dean"
INDEX 01 31:23:25
TRACK 09 AUDIO
TITLE "Don`t Stop The Rock"
PERFORMER "Music Instructor Feat. Dean"
INDEX 01 36:02:09
TRACK 10 AUDIO
TITLE "Super Sonic"
PERFORMER "Music Instructor Feat. Dean"
INDEX 01 39:48:55
TRACK 11 AUDIO
TITLE "Galaxy Jam"
PERFORMER "Music Instructor Feat. Dean"
INDEX 01 43:26:38
TRACK 12 AUDIO
TITLE "Pack Jam"
PERFORMER "Music Instructor Feat. Dean"
INDEX 01 48:40:43
TRACK 13 AUDIO
TITLE "Rock Your Body"
PERFORMER "Music Instructor Feat. Dean"
INDEX 01 52:19:07
TRACK 14 AUDIO
TITLE "Get Freacky"
PERFORMER "Music Instructor Feat. Dean"
INDEX 01 55:51:29
TRACK 15 AUDIO
TITLE "We Are The Robots"
PERFORMER "Music Instructor Feat. Dean"
INDEX 01 59:02:32
TRACK 16 AUDIO
TITLE "Mega Mix"
PERFORMER "Music Instructor Feat. Dean"
INDEX 01 62:25:58
TRACK 17 AUDIO
TITLE "Super Fly (Upper MC) (Single Edit)"
PERFORMER "Music Instructor Feat. Dean"
INDEX 01 72:00:14
TRACK 18 AUDIO
TITLE "Super Fly (Upper MC) (Genlog Remix)"
PERFORMER "Music Instructor Feat. Dean"
INDEX 01 75:44:06

Отчёт Audiochecker

AUDIOCHECKER v2.0 beta (build 457) - by Dester - opdester@freemail.hu
~~~~~~~~~~~~~~~~~~~~~~~~~~~~~~~~~~
-=== DO NOT EDIT THIS FILE! ===-
Path: ...\2000 - Music Instructor Feat. Dean - Super Fly (Upper MC)
1 -=- 2000 - Music Instructor Feat. Dean - Super Fly (Upper MC).flac -=- CDDA (100%)
253311172
Вы не можете начинать темы
Вы не можете отвечать на сообщения
Вы не можете редактировать свои сообщения
Вы не можете удалять свои сообщения
Вы не можете голосовать в опросах
Вы не можете прикреплять файлы к сообщениям
Вы можете скачивать файлы
!ВНИМАНИЕ!

Сайт не предоставляет электронные версии произведений, а занимается лишь коллекционированием и каталогизацией ссылок, присылаемых и публикуемых на форуме нашими читателями. Если вы являетесь правообладателем какого-либо представленного материала и не желаете, чтобы ссылка на него находилась в нашем каталоге, свяжитесь с нами, и мы незамедлительно удалим ее. Файлы для обмена на трекере предоставлены пользователями сайта, и администрация не несет ответственности за их содержание. Просьба не заливать файлы, защищенные авторскими правами, а также файлы нелегального содержания!

Искали программы, игры, дополнения, музыка mp3, аниме, аудио книги, журналы? Добро пожаловать на свободный торрент трекер Torrents, у нас можно скачать бесплатно, без смс и регистрации и прочих ограничений лучшие, отборные сборки программ, игр. Скачать торрентом не составит труда даже не опытному пользователю. Раздачи ежедневно обновляются, только лучшие и качественные раздачи, подробные описания и скриншоты. Огромная коллекция программ для работы со звуком, графикой, дизайном, а так же множество плагинов и инструментов к ним с подробной инструкцией и рекомендациями. Прошивки для навигаторов, карты. Разнообразные игры, для Windows, Linux. В коллекцие есть и старые игры любых жанров, Rpg, Action, Shooter, strategy Множество дополнений, модификаций, сценариев для популярных игр в жанре экш, рпг, гонки, стратегии, логические игры. Множество аддонов и сценариев для Microsoft Flight Simulator Большая коллекция книг, учебников. Если нет возможности купить печатное издание - смело скачивайте цифровую версию книги или, быть может, журнала. Не любите читать - можно загрузить бесплатно аудикнигу. Для веб дизайнеров и программистов так же найдется множество специализированного софта, таких как: редакторы с подсветкой, среды программирования, компоненты, системы управления базами данных, разнообразные скрипты и шаблоны. Не так давно у нас появился материал для автолюбителей и владельцев мото - оригинальные и неоригинальные каталоги запчастей, книги и журналы по ремонту и обслуживанию, видеоуроки, статьи по чип тюнингу, прошивкам. Процедура получения контента элементарная, достаточно просто скачать торрент файл и добавить его в загрузку в вашем торрент клиенте. Если у вас нет специального торрент клиента, вы можете его скачать у нас.