(Electro,Breakbeat) [CD] The Freek Macheen - Modulator Control - 2017, FLAC (image+.cue), lossless 

Цитировать
The Freek Macheen / Modulator Control
Жанр: Electro,Breakbeat
Носитель: CD
Страна-производитель диска (релиза): Germany
Год издания: 2017
Издатель (лейбл): Eisblock Records
Номер по каталогу: 10126117
Страна исполнителя (группы): Germany
Аудиокодек: FLAC (*.flac)
Тип рипа: image+.cue
Битрейт аудио: lossless
Продолжительность: 01:02:14
Источник (релизер): (meloman-68)
Наличие сканов в содержимом раздачи: нет
Треклист:
01. Modulator Control (07:07)
02. Dont Funk with the Robots (05:30)
03. Midnight Action (05:43)
04. Knock Out (04:45)
05. Flash Back (05:29)
06. Electro Energized (05:33)
07. Nightshift in Space (05:27)
08. Nuclear Winter (05:41)
09. Electro Love (04:58)
10. Dont Funk with the Robots [Extented Remix] (06:34)
11. Flash Back [Instrumental] (05:28)

Лог создания рипа

Exact Audio Copy V1.3 from 2. September 2016
Отчёт EAC об извлечении, выполненном 6. ноября 2017, 16:13
The Freek Macheen / Modulator Control
Дисковод: Optiarc DVD RW AD-7243S Adapter: 1 ID: 0
Режим чтения : Достоверность
Использование точного потока : Да
Отключение кэша аудио : Да
Использование указателей C2 : Нет
Коррекция смещения при чтении : 48
Способность читать области Lead-in и Lead-out : Нет
Заполнение пропущенных сэмплов тишиной : Да
Удаление блоков с тишиной в начале и конце : Нет
При вычислениях CRC использовались нулевые сэмплы : Да
Интерфейс : Встроенный Win32-интерфейс для Win NT/2000
Выходной формат : Пользовательский кодировщик
Выбранный битрейт : 768 kBit/s
Качество : Высокий
Добавление ID3-тега : Нет
Утилита сжатия : C:\Program Files (x86)\Exact Audio Copy\FLAC\FLAC.EXE
Дополнительные параметры : -6 -V -T "ARTIST=%artist%" -T "TITLE=%title%" -T "ALBUM=%albumtitle%" -T "DATE=%year%" -T "TRACKNUMBER=%tracknr%" -T "GENRE=%genre%" -T "COMMENT=%comment%" -T "BAND=%albuminterpret%" -T "ALBUMARTIST=%albuminterpret%" -T "COMPOSER=%composer%" %haslyrics%--tag-from-file=LYRICS="%lyricsfile%"%haslyrics% -T "DISCNUMBER=%cdnumber%" -T "TOTALDISCS=%totalcds%" -T "TOTALTRACKS=%numtracks%" %hascover%--picture="%coverfile%"%hascover% %source% -o %dest%
TOC извлечённого CD
Трек | Старт | Длительность | Начальный сектор | Конечный сектор
---------------------------------------------------------------------
1 | 0:00.00 | 7:07.34 | 0 | 32058
2 | 7:07.34 | 5:29.57 | 32059 | 56790
3 | 12:37.16 | 5:42.45 | 56791 | 82485
4 | 18:19.61 | 4:44.74 | 82486 | 103859
5 | 23:04.60 | 5:29.06 | 103860 | 128540
6 | 28:33.66 | 5:32.68 | 128541 | 153508
7 | 34:06.59 | 5:26.45 | 153509 | 178003
8 | 39:33.29 | 5:40.38 | 178004 | 203541
9 | 45:13.67 | 4:57.39 | 203542 | 225855
10 | 50:11.31 | 6:33.69 | 225856 | 255399
11 | 56:45.25 | 5:28.26 | 255400 | 280025
Характеристики диапазона извлечения и сообщения об ошибках
Выбранный диапазон
Имя файла G:\meloman-68\The Freek Macheen - Modulator Control.wav
Пиковый уровень 98.0 %
Скорость извлечения 4.2 X
Качество диапазона 99.9 %
CRC теста 508C880E
CRC копии 508C880E
Копирование... OK
Ошибок не произошло
AccurateRip: сводка
Трек 1 отсутствует в базе данных
Трек 2 отсутствует в базе данных
Трек 3 отсутствует в базе данных
Трек 4 отсутствует в базе данных
Трек 5 отсутствует в базе данных
Трек 6 отсутствует в базе данных
Трек 7 отсутствует в базе данных
Трек 8 отсутствует в базе данных
Трек 9 отсутствует в базе данных
Трек 10 отсутствует в базе данных
Трек 11 отсутствует в базе данных
Ни одного трека нет в базе AccurateRip
Конец отчёта
==== Контрольная сумма отчёта 1FD85CE6DC85016E3FC3796754BEF5C096AD6B993E10F736AB033C14E170884C ====

Содержание индексной карты (.CUE)

REM GENRE Electro
REM DATE 2017
REM DISCID 8C0E950B
REM COMMENT "ExactAudioCopy v1.3"
PERFORMER "The Freek Macheen"
TITLE "Modulator Control"
REM COMPOSER ""
FILE "The Freek Macheen - Modulator Control.flac" WAVE
TRACK 01 AUDIO
TITLE "Modulator Control"
PERFORMER "The Freek Macheen"
REM COMPOSER ""
FLAGS DCP
INDEX 01 00:00:00
TRACK 02 AUDIO
TITLE "Dont Funk with the Robots"
PERFORMER "The Freek Macheen"
REM COMPOSER ""
FLAGS DCP
INDEX 00 07:05:34
INDEX 01 07:07:34
TRACK 03 AUDIO
TITLE "Midnight Action"
PERFORMER "The Freek Macheen"
REM COMPOSER ""
FLAGS DCP
INDEX 00 12:35:16
INDEX 01 12:37:16
TRACK 04 AUDIO
TITLE "Knock Out"
PERFORMER "The Freek Macheen"
REM COMPOSER ""
FLAGS DCP
INDEX 00 18:17:61
INDEX 01 18:19:61
TRACK 05 AUDIO
TITLE "Flash Back"
PERFORMER "The Freek Macheen"
REM COMPOSER ""
FLAGS DCP
INDEX 00 23:02:60
INDEX 01 23:04:60
TRACK 06 AUDIO
TITLE "Electro Energized"
PERFORMER "The Freek Macheen"
REM COMPOSER ""
FLAGS DCP
INDEX 00 28:31:66
INDEX 01 28:33:66
TRACK 07 AUDIO
TITLE "Nightshift in Space"
PERFORMER "The Freek Macheen"
REM COMPOSER ""
FLAGS DCP
INDEX 00 34:04:59
INDEX 01 34:06:59
TRACK 08 AUDIO
TITLE "Nuclear Winter"
PERFORMER "The Freek Macheen"
REM COMPOSER ""
FLAGS DCP
INDEX 00 39:31:29
INDEX 01 39:33:29
TRACK 09 AUDIO
TITLE "Electro Love"
PERFORMER "The Freek Macheen"
REM COMPOSER ""
FLAGS DCP
INDEX 00 45:11:67
INDEX 01 45:13:67
TRACK 10 AUDIO
TITLE "Dont Funk with the Robots (Extented Remix)"
PERFORMER "The Freek Macheen"
REM COMPOSER ""
FLAGS DCP
INDEX 00 50:09:31
INDEX 01 50:11:31
TRACK 11 AUDIO
TITLE "Flash Back (Instrumental)"
PERFORMER "The Freek Macheen"
REM COMPOSER ""
FLAGS DCP
INDEX 00 56:43:25
INDEX 01 56:45:25

Об исполнителе (группе)

The Freek Macheen
Real Name:
Michael Wiesenfarth
German producer devoted to Electro. He is one of the founders of Eisblock Records.
Вы не можете начинать темы
Вы не можете отвечать на сообщения
Вы не можете редактировать свои сообщения
Вы не можете удалять свои сообщения
Вы не можете голосовать в опросах
Вы не можете прикреплять файлы к сообщениям
Вы можете скачивать файлы
!ВНИМАНИЕ!

Сайт не предоставляет электронные версии произведений, а занимается лишь коллекционированием и каталогизацией ссылок, присылаемых и публикуемых на форуме нашими читателями. Если вы являетесь правообладателем какого-либо представленного материала и не желаете, чтобы ссылка на него находилась в нашем каталоге, свяжитесь с нами, и мы незамедлительно удалим ее. Файлы для обмена на трекере предоставлены пользователями сайта, и администрация не несет ответственности за их содержание. Просьба не заливать файлы, защищенные авторскими правами, а также файлы нелегального содержания!

Искали программы, игры, дополнения, музыка mp3, аниме, аудио книги, журналы? Добро пожаловать на свободный торрент трекер Torrents, у нас можно скачать бесплатно, без смс и регистрации и прочих ограничений лучшие, отборные сборки программ, игр. Скачать торрентом не составит труда даже не опытному пользователю. Раздачи ежедневно обновляются, только лучшие и качественные раздачи, подробные описания и скриншоты. Огромная коллекция программ для работы со звуком, графикой, дизайном, а так же множество плагинов и инструментов к ним с подробной инструкцией и рекомендациями. Прошивки для навигаторов, карты. Разнообразные игры, для Windows, Linux. В коллекцие есть и старые игры любых жанров, Rpg, Action, Shooter, strategy Множество дополнений, модификаций, сценариев для популярных игр в жанре экш, рпг, гонки, стратегии, логические игры. Множество аддонов и сценариев для Microsoft Flight Simulator Большая коллекция книг, учебников. Если нет возможности купить печатное издание - смело скачивайте цифровую версию книги или, быть может, журнала. Не любите читать - можно загрузить бесплатно аудикнигу. Для веб дизайнеров и программистов так же найдется множество специализированного софта, таких как: редакторы с подсветкой, среды программирования, компоненты, системы управления базами данных, разнообразные скрипты и шаблоны. Не так давно у нас появился материал для автолюбителей и владельцев мото - оригинальные и неоригинальные каталоги запчастей, книги и журналы по ремонту и обслуживанию, видеоуроки, статьи по чип тюнингу, прошивкам. Процедура получения контента элементарная, достаточно просто скачать торрент файл и добавить его в загрузку в вашем торрент клиенте. Если у вас нет специального торрент клиента, вы можете его скачать у нас.