(Breaks, Electro, Freestyle) [CD] Flying Steps - Greatest Hits - 2002, FLAC (image+.cue), lossless 

Цитировать
Flying Steps - Greatest Hits

Жанр: Breaks, Electro, Freestyle
Носитель: CD
Страна-производитель диска (релиза): Germany
Год издания: 2002
Издатель (лейбл): Dance Street
Номер по каталогу: DST 71062-2 / DST 71062-2-8
Аудиокодек: FLAC (*.flac)
Тип рипа: image+.cue
Битрейт аудио: lossless
Продолжительность: 00:54:07
Источник (релизер): Собственный рип
Наличие сканов в содержимом раздачи: Да
Треклист:
01. Breakin' It Down (Extended Mix)
02. We Gonna Rock It (2001 Remix)
03. Super Sonic (Bonus Track)
04. In Da Arena (Video Show Cut)
05. King Of Rock (Zip Mix)
06. We Are Electric (Radio Mix)
07. B-Unitor II (DJ Mesia Mix)
08. Body Rockin (Crashi Cut)
09. Electrik (Sonixtended)
10. B-Town Power (Bassheadz Edit)
11. We Are Robotic (Radio Mix)
12. In Da Arena (Bassheadz Remix)
13. We Gonna Rock It (Jetset Remix)
14. We Are Electric (Bassheadz Remix)

Лог создания рипа
Exact Audio Copy V1.1 from 23. June 2015
EAC extraction logfile from 29. November 2017, 21:28
Flying Steps / Greatest Hits
Used drive : Optiarc DVD RW AD-7740H Adapter: 1 ID: 0
Read mode : SecureUtilize accurate stream : YesDefeat audio cache : YesMake use of C2 pointers : No
Read offset correction : 48Overread into Lead-In and Lead-Out : NoFill up missing offset samples with silence : YesDelete leading and trailing silent blocks : NoNull samples used in CRC calculations : YesUsed interface : Native Win32 interface for Win NT & 2000
Used output format : User Defined EncoderSelected bitrate : 1024 kBit/sQuality : HighAdd ID3 tag : NoCommand line compressor : C:\Program Files (x86)\Exact Audio Copy\Flac\flac.exeAdditional command line options : -V -8 -T "Date=%year%" -T "Genre=%genre%" %source%
TOC of the extracted CD
Track | Start | Length | Start sector | End sector --------------------------------------------------------- 1 | 0:00.00 | 4:55.62 | 0 | 22186 2 | 4:55.62 | 3:20.70 | 22187 | 37256 3 | 8:16.57 | 3:47.28 | 37257 | 54309 4 | 12:04.10 | 3:21.43 | 54310 | 69427 5 | 15:25.53 | 4:04.16 | 69428 | 87743 6 | 19:29.69 | 3:29.43 | 87744 | 103461 7 | 22:59.37 | 3:12.44 | 103462 | 117905 8 | 26:12.06 | 3:55.57 | 117906 | 135587 9 | 30:07.63 | 3:44.21 | 135588 | 152408 10 | 33:52.09 | 3:26.10 | 152409 | 167868 11 | 37:18.19 | 3:40.56 | 167869 | 184424 12 | 40:59.00 | 4:45.41 | 184425 | 205840 13 | 45:44.41 | 4:19.23 | 205841 | 225288 14 | 50:03.64 | 4:03.23 | 225289 | 243536 15 | 56:39.12 | 16:12.10 | 254937 | 327846
Range status and errors
Selected range
Filename C:\s.O.s\2002 - Flying Steps - Greatest Hits.wav
Peak level 98.9 % Extraction speed 2.0 X Range quality 100.0 % Test CRC DDF16678 Copy CRC DDF16678 Copy OK
No errors occurred
AccurateRip summary
Track 1 cannot be verified as accurate (confidence 1) [60E2AF48], AccurateRip returned [6A2AC88D] (AR v2)Track 2 cannot be verified as accurate (confidence 1) [5E9A6C9A], AccurateRip returned [86F9C08C] (AR v2)Track 3 cannot be verified as accurate (confidence 1) [4EE55ACB], AccurateRip returned [FB079DB2] (AR v2)Track 4 cannot be verified as accurate (confidence 1) [3E6E7F41], AccurateRip returned [A3B400CC] (AR v2)Track 5 cannot be verified as accurate (confidence 1) [67C56CD8], AccurateRip returned [27160A55] (AR v2)Track 6 cannot be verified as accurate (confidence 1) [E3A2B006], AccurateRip returned [A55F7196] (AR v2)Track 7 cannot be verified as accurate (confidence 1) [39AA0B90], AccurateRip returned [F749E32B] (AR v2)Track 8 cannot be verified as accurate (confidence 1) [064C4B5F], AccurateRip returned [D0EA85D7] (AR v2)Track 9 cannot be verified as accurate (confidence 1) [3A85744B], AccurateRip returned [D5816C11] (AR v2)Track 10 cannot be verified as accurate (confidence 1) [1F4E9521], AccurateRip returned [7CACF31F] (AR v2)Track 11 cannot be verified as accurate (confidence 1) [04ACD23F], AccurateRip returned [A1BFD101] (AR v2)Track 12 cannot be verified as accurate (confidence 1) [C57A4A3F], AccurateRip returned [61BC5214] (AR v2)Track 13 cannot be verified as accurate (confidence 1) [353C9941], AccurateRip returned [9D620631] (AR v2)Track 14 cannot be verified as accurate (confidence 1) [75F525E0], AccurateRip returned [97AEDDDD] (AR v2)
No tracks could be verified as accurateYou may have a different pressing from the one(s) in the database
End of status report
==== Log checksum 4B20801EB2924F1C75CDC6BCA0D36E06EDB4835992B6F2021D5F5D19A02B8F47 ====

Содержание индексной карты (.CUE)

TITLE "Greatest Hits"PERFORMER "Flying Steps"REM GENRE "Electronic"REM DATE "2002"REM COMMENT "ExactAudioCopy v1.1"REM DISCID C511130FFILE "2002 - Flying Steps - Greatest Hits.flac" WAVETRACK 01 AUDIO  INDEX 01 00:00:00  TITLE "Breakin' It Down (Extended Mix)"TRACK 02 AUDIO  INDEX 01 04:55:62  TITLE "We Gonna Rock It (2001 Remix)"TRACK 03 AUDIO  INDEX 01 08:16:57  TITLE "Super Sonic (Bonus Track)"TRACK 04 AUDIO  INDEX 01 12:04:10  TITLE "In Da Arena (Video Show Cut)"TRACK 05 AUDIO  INDEX 01 15:25:53  TITLE "King Of Rock (Zip Mix)"TRACK 06 AUDIO  INDEX 01 19:29:69  TITLE "We Are Electric (Radio Mix)"TRACK 07 AUDIO  INDEX 01 22:59:37  TITLE "B-Unitor II (DJ Mesia Mix)"TRACK 08 AUDIO  INDEX 01 26:12:06  TITLE "Body Rockin (Crashi Cut)"TRACK 09 AUDIO  INDEX 01 30:07:63  TITLE "Electrik (Sonixtended)"TRACK 10 AUDIO  INDEX 01 33:52:09  TITLE "B-Town Power (Bassheadz Edit)"TRACK 11 AUDIO  INDEX 01 37:18:19  TITLE "We Are Robotic (Radio Mix)"TRACK 12 AUDIO  INDEX 01 40:59:00  TITLE "In Da Arena (Bassheadz Remix)"TRACK 13 AUDIO  INDEX 01 45:44:41  TITLE "We Gonna Rock It (Jetset Remix)"TRACK 14 AUDIO  INDEX 01 50:03:64  TITLE "We Are Electric (Bassheadz Remix)"
Вы не можете начинать темы
Вы не можете отвечать на сообщения
Вы не можете редактировать свои сообщения
Вы не можете удалять свои сообщения
Вы не можете голосовать в опросах
Вы не можете прикреплять файлы к сообщениям
Вы можете скачивать файлы
!ВНИМАНИЕ!

Сайт не предоставляет электронные версии произведений, а занимается лишь коллекционированием и каталогизацией ссылок, присылаемых и публикуемых на форуме нашими читателями. Если вы являетесь правообладателем какого-либо представленного материала и не желаете, чтобы ссылка на него находилась в нашем каталоге, свяжитесь с нами, и мы незамедлительно удалим ее. Файлы для обмена на трекере предоставлены пользователями сайта, и администрация не несет ответственности за их содержание. Просьба не заливать файлы, защищенные авторскими правами, а также файлы нелегального содержания!

Искали программы, игры, дополнения, музыка mp3, аниме, аудио книги, журналы? Добро пожаловать на свободный торрент трекер Torrents, у нас можно скачать бесплатно, без смс и регистрации и прочих ограничений лучшие, отборные сборки программ, игр. Скачать торрентом не составит труда даже не опытному пользователю. Раздачи ежедневно обновляются, только лучшие и качественные раздачи, подробные описания и скриншоты. Огромная коллекция программ для работы со звуком, графикой, дизайном, а так же множество плагинов и инструментов к ним с подробной инструкцией и рекомендациями. Прошивки для навигаторов, карты. Разнообразные игры, для Windows, Linux. В коллекцие есть и старые игры любых жанров, Rpg, Action, Shooter, strategy Множество дополнений, модификаций, сценариев для популярных игр в жанре экш, рпг, гонки, стратегии, логические игры. Множество аддонов и сценариев для Microsoft Flight Simulator Большая коллекция книг, учебников. Если нет возможности купить печатное издание - смело скачивайте цифровую версию книги или, быть может, журнала. Не любите читать - можно загрузить бесплатно аудикнигу. Для веб дизайнеров и программистов так же найдется множество специализированного софта, таких как: редакторы с подсветкой, среды программирования, компоненты, системы управления базами данных, разнообразные скрипты и шаблоны. Не так давно у нас появился материал для автолюбителей и владельцев мото - оригинальные и неоригинальные каталоги запчастей, книги и журналы по ремонту и обслуживанию, видеоуроки, статьи по чип тюнингу, прошивкам. Процедура получения контента элементарная, достаточно просто скачать торрент файл и добавить его в загрузку в вашем торрент клиенте. Если у вас нет специального торрент клиента, вы можете его скачать у нас.