(Electro, Downtempo, Big Beat) [CD] VA - Citadel Supermarket 97-05 - 2006, FLAC (image+.cue), lossless 

Цитировать
Citadel Supermarket 97-05
Жанр: Electro, Downtempo, Big Beat
Носитель: CD
Год издания: 2006
Издатель (лейбл): Citadel Records
Номер по каталогу: CTCD 061
Аудиокодек: FLAC (*.flac)
Тип рипа: image+.cue
Битрейт аудио: lossless
Продолжительность: 01:13:06
Источник (релизер): собственный рип
Наличие сканов в содержимом раздачи: да
Треклист:
01. MGI Feat. Olga Noel - Les Chrysantemes [5:22]
02. Ula - Just An Engine [3:46]
03. El Cosmo Group - Mahalakshmi [4:59]
04. Ozone Cocktail - Magnetic Power [5:46]
05. etsky Panadoll - The Water Flows [4:34]
06. MGI Feat. Daria Rodcher - Ego Musique [4:43]
07. That Black - From House To Drum'n'Bass [2:53]
08. Dub Chairman - Girl (SHB Track Remix) [4:21]
09. Ula - To Be A Human [3:41]
10. Second Hand Band - Where You Are [4:47]
11. KNR Feat. A. Marto - Arka [7:03]
12. Pavel Tukki - Diku [7:41]
13. Eject Project - Four [5:55]
14. 2 Avocados - Last Dump [3:35]
15. RA/BA Mutantъ - Sarov (Edit) [4:00]

Лог создания рипа

Exact Audio Copy V1.3 from 2. September 2016
EAC extraction logfile from 9. May 2017, 18:33
Various Artists / Citadel Supermarket 97-05
Used drive : ASUS DRW-24B5ST Adapter: 6 ID: 0
Read mode : SecureUtilize accurate stream : YesDefeat audio cache : YesMake use of C2 pointers : No
Read offset correction : 6Overread into Lead-In and Lead-Out : NoFill up missing offset samples with silence : YesDelete leading and trailing silent blocks : NoNull samples used in CRC calculations : YesUsed interface : Installed external ASPI interface
Used output format : User Defined EncoderSelected bitrate : 128 kBit/sQuality : HighAdd ID3 tag : NoCommand line compressor : D:\flac-1.3.2-win\win64\flac.exeAdditional command line options : -V -8 -T "Date=%year%" -T "COMMENT=ripped by Andy aka yetiisyou" -T "Genre=%genre%" %source%
TOC of the extracted CD
Track | Start | Length | Start sector | End sector --------------------------------------------------------- 1 | 0:00.00 | 5:21.46 | 0 | 24120 2 | 5:21.46 | 3:46.14 | 24121 | 41084 3 | 9:07.60 | 4:58.44 | 41085 | 63478 4 | 14:06.29 | 5:46.36 | 63479 | 89464 5 | 19:52.65 | 4:33.64 | 89465 | 110003 6 | 24:26.54 | 4:42.49 | 110004 | 131202 7 | 29:09.28 | 2:53.16 | 131203 | 144193 8 | 32:02.44 | 4:20.48 | 144194 | 163741 9 | 36:23.17 | 3:40.55 | 163742 | 180296 10 | 40:03.72 | 4:47.03 | 180297 | 201824 11 | 44:51.00 | 7:03.20 | 201825 | 233569 12 | 51:54.20 | 7:41.31 | 233570 | 268175 13 | 59:35.51 | 5:55.22 | 268176 | 294822 14 | 65:30.73 | 3:34.69 | 294823 | 310941 15 | 69:05.67 | 4:00.36 | 310942 | 328977
Range status and errors
Selected range
Filename E:\!Ripped by Andy aka yetiisyou\VA - Citadel Supermarket 97-05 [CTCD 061] [2006]\Various Artists - Citadel Supermarket 97-05.wav
Peak level 100.0 % Extraction speed 6.5 X Range quality 99.9 % Test CRC C5E4BBBD Copy CRC C5E4BBBD Copy OK
No errors occurred
AccurateRip summary
Track 1 accurately ripped (confidence 1) [CC71CDDE] (AR v2)Track 2 accurately ripped (confidence 1) [CD4DFF67] (AR v2)Track 3 accurately ripped (confidence 1) [B05F7F0F] (AR v2)Track 4 accurately ripped (confidence 1) [8C839022] (AR v2)Track 5 accurately ripped (confidence 1) [4FD76AC6] (AR v2)Track 6 accurately ripped (confidence 1) [A079548C] (AR v2)Track 7 accurately ripped (confidence 1) [BDF7CAA1] (AR v2)Track 8 accurately ripped (confidence 1) [2AB9CCFB] (AR v2)Track 9 accurately ripped (confidence 1) [3483825B] (AR v2)Track 10 accurately ripped (confidence 1) [83500E69] (AR v2)Track 11 accurately ripped (confidence 1) [16CD57F1] (AR v2)Track 12 accurately ripped (confidence 1) [789FE038] (AR v2)Track 13 accurately ripped (confidence 1) [923D4DF7] (AR v2)Track 14 accurately ripped (confidence 1) [DF9AC23B] (AR v2)Track 15 accurately ripped (confidence 1) [55EB7B0C] (AR v2)
All tracks accurately ripped
End of status report
---- CUETools DB Plugin V2.1.6
[CTDB TOCID: ztUoPFkbg.3OhxFHnGYStoy8_L4-] foundSubmit result: ztUoPFkbg.3OhxFHnGYStoy8_L4- has been confirmedTrack | CTDB Status 1 | (1/1) Accurately ripped 2 | (1/1) Accurately ripped 3 | (1/1) Accurately ripped 4 | (1/1) Accurately ripped 5 | (1/1) Accurately ripped 6 | (1/1) Accurately ripped 7 | (1/1) Accurately ripped 8 | (1/1) Accurately ripped 9 | (1/1) Accurately ripped 10 | (1/1) Accurately ripped 11 | (1/1) Accurately ripped 12 | (1/1) Accurately ripped 13 | (1/1) Accurately ripped 14 | (1/1) Accurately ripped 15 | (1/1) Accurately ripped
==== Log checksum A23C8FD1A2E67C36E3A683469A86CC4687A053BA2790EE28DEE53545A39379C4 ====

Содержание индексной карты (.CUE)

REM DATE 2006REM DISCID E111220FREM COMMENT "ExactAudioCopy v1.3"PERFORMER "Various Artists"TITLE "Citadel Supermarket 97-05"REM COMPOSER ""FILE "Various Artists - Citadel Supermarket 97-05.flac" WAVE  TRACK 01 AUDIO    TITLE "Les Chrysantemes"    PERFORMER "MGI Feat. Olga Noel"    REM COMPOSER ""    INDEX 01 00:00:00  TRACK 02 AUDIO    TITLE "Just An Engine"    PERFORMER "Ula"    REM COMPOSER ""    INDEX 01 05:21:46  TRACK 03 AUDIO    TITLE "Mahalakshmi"    PERFORMER "El Cosmo Group"    REM COMPOSER ""    INDEX 01 09:07:60  TRACK 04 AUDIO    TITLE "Magnetic Power"    PERFORMER "Ozone Cocktail"    REM COMPOSER ""    INDEX 01 14:06:29  TRACK 05 AUDIO    TITLE "The Water Flows"    PERFORMER "etsky Panadoll"    REM COMPOSER ""    INDEX 01 19:52:65  TRACK 06 AUDIO    TITLE "Ego Musique"    PERFORMER "MGI Feat. Daria Rodcher"    REM COMPOSER ""    INDEX 01 24:26:54  TRACK 07 AUDIO    TITLE "From House To Drum'n'Bass"    PERFORMER "That Black"    REM COMPOSER ""    INDEX 01 29:09:28  TRACK 08 AUDIO    TITLE "Girl (SHB Track Remix)"    PERFORMER "Dub Chairman"    REM COMPOSER ""    INDEX 01 32:02:44  TRACK 09 AUDIO    TITLE "To Be A Human"    PERFORMER "Ula"    REM COMPOSER ""    INDEX 01 36:23:17  TRACK 10 AUDIO    TITLE "Where You Are"    PERFORMER "Second Hand Band"    REM COMPOSER ""    INDEX 01 40:03:72  TRACK 11 AUDIO    TITLE "Arka"    PERFORMER "KNR Feat. A. Marto"    REM COMPOSER ""    INDEX 01 44:51:00  TRACK 12 AUDIO    TITLE "Diku"    PERFORMER "Pavel Tukki"    REM COMPOSER ""    INDEX 01 51:54:20  TRACK 13 AUDIO    TITLE "Four"    PERFORMER "Eject Project"    REM COMPOSER ""    INDEX 01 59:35:51  TRACK 14 AUDIO    TITLE "Last Dump"    PERFORMER "2 Avocados"    REM COMPOSER ""    INDEX 01 65:30:73  TRACK 15 AUDIO    TITLE "Sarov (Edit)"    PERFORMER "RA/BA Mutantъ"    REM COMPOSER ""    INDEX 01 69:05:67
Вы не можете начинать темы
Вы не можете отвечать на сообщения
Вы не можете редактировать свои сообщения
Вы не можете удалять свои сообщения
Вы не можете голосовать в опросах
Вы не можете прикреплять файлы к сообщениям
Вы можете скачивать файлы
!ВНИМАНИЕ!

Сайт не предоставляет электронные версии произведений, а занимается лишь коллекционированием и каталогизацией ссылок, присылаемых и публикуемых на форуме нашими читателями. Если вы являетесь правообладателем какого-либо представленного материала и не желаете, чтобы ссылка на него находилась в нашем каталоге, свяжитесь с нами, и мы незамедлительно удалим ее. Файлы для обмена на трекере предоставлены пользователями сайта, и администрация не несет ответственности за их содержание. Просьба не заливать файлы, защищенные авторскими правами, а также файлы нелегального содержания!

Искали программы, игры, дополнения, музыка mp3, аниме, аудио книги, журналы? Добро пожаловать на свободный торрент трекер Torrents, у нас можно скачать бесплатно, без смс и регистрации и прочих ограничений лучшие, отборные сборки программ, игр. Скачать торрентом не составит труда даже не опытному пользователю. Раздачи ежедневно обновляются, только лучшие и качественные раздачи, подробные описания и скриншоты. Огромная коллекция программ для работы со звуком, графикой, дизайном, а так же множество плагинов и инструментов к ним с подробной инструкцией и рекомендациями. Прошивки для навигаторов, карты. Разнообразные игры, для Windows, Linux. В коллекцие есть и старые игры любых жанров, Rpg, Action, Shooter, strategy Множество дополнений, модификаций, сценариев для популярных игр в жанре экш, рпг, гонки, стратегии, логические игры. Множество аддонов и сценариев для Microsoft Flight Simulator Большая коллекция книг, учебников. Если нет возможности купить печатное издание - смело скачивайте цифровую версию книги или, быть может, журнала. Не любите читать - можно загрузить бесплатно аудикнигу. Для веб дизайнеров и программистов так же найдется множество специализированного софта, таких как: редакторы с подсветкой, среды программирования, компоненты, системы управления базами данных, разнообразные скрипты и шаблоны. Не так давно у нас появился материал для автолюбителей и владельцев мото - оригинальные и неоригинальные каталоги запчастей, книги и журналы по ремонту и обслуживанию, видеоуроки, статьи по чип тюнингу, прошивкам. Процедура получения контента элементарная, достаточно просто скачать торрент файл и добавить его в загрузку в вашем торрент клиенте. Если у вас нет специального торрент клиента, вы можете его скачать у нас.