(Electro, Hip Hop) [CDM] The Freestyle Crew - Wildstyle - 1999, FLAC (tracks+.cue), lossless 

Цитировать
The Freestyle Crew / Wildstyle
Жанр: Electro, Hip Hop
Носитель: CDM
Год издания: 1999
Издатель (лейбл): MNF Records
Номер по каталогу: MNF-0083-8
Аудиокодек: FLAC (*.flac)
Тип рипа: tracks+.cue
Битрейт аудио: lossless
Продолжительность: 16:59
Источник (релизер): свой рип
Наличие сканов в содержимом раздачи: да
Треклист:
01. The Freestyle Crew - Wildstyle (Short Cut) [4:26]
02. The Freestyle Crew - Wildstyle (Club Mix) [6:07]
03. The Freestyle Crew - Wildstyle (Murder Club Mix) [6:26]

Лог создания рипа

Exact Audio Copy V1.3 from 2. September 2016
EAC extraction logfile from 21. December 2017, 13:56
The Freestyle Crew / Wildstyle
Used drive : ASUS DRW-24B5ST Adapter: 6 ID: 0
Read mode : SecureUtilize accurate stream : YesDefeat audio cache : YesMake use of C2 pointers : No
Read offset correction : 6Overread into Lead-In and Lead-Out : NoFill up missing offset samples with silence : YesDelete leading and trailing silent blocks : NoNull samples used in CRC calculations : YesUsed interface : Installed external ASPI interfaceGap handling : Appended to previous track
Used output format : User Defined EncoderSelected bitrate : 128 kBit/sQuality : HighAdd ID3 tag : NoCommand line compressor : D:\flac-1.3.2-win\win64\flac.exeAdditional command line options : -8 -V -T "ARTIST=%artist%" -T "TITLE=%title%" -T "ALBUM=%albumtitle%" -T "DATE=%year%" -T "TRACKNUMBER=%tracknr%" -T "GENRE=%genre%" -T "COMMENT=ripped by Andy aka yetiisyou" %source%
TOC of the extracted CD
Track | Start | Length | Start sector | End sector --------------------------------------------------------- 1 | 0:00.00 | 4:26.25 | 0 | 19974 2 | 4:26.25 | 6:06.40 | 19975 | 47464 3 | 10:32.65 | 6:26.02 | 47465 | 76416
Track 1
Filename E:\!Ripped by Andy aka yetiisyou\The Freestyle Crew - Wildstyle [MNF-0083-8] [1999]\01. The Freestyle Crew - Wildstyle (Short Cut).wav
Pre-gap length 0:00:02.00
Peak level 96.5 % Extraction speed 3.5 X Track quality 100.0 % Test CRC 48C6FFC3 Copy CRC 48C6FFC3 Track not present in AccurateRip database Copy OK
Track 2
Filename E:\!Ripped by Andy aka yetiisyou\The Freestyle Crew - Wildstyle [MNF-0083-8] [1999]\02. The Freestyle Crew - Wildstyle (Club Mix).wav
Pre-gap length 0:00:02.00
Peak level 96.5 % Extraction speed 3.6 X Track quality 99.9 % Test CRC B7C7645C Copy CRC B7C7645C Track not present in AccurateRip database Copy OK
Track 3
Filename E:\!Ripped by Andy aka yetiisyou\The Freestyle Crew - Wildstyle [MNF-0083-8] [1999]\03. The Freestyle Crew - Wildstyle (Murder Club Mix).wav
Pre-gap length 0:00:02.00
Peak level 96.5 % Extraction speed 4.7 X Track quality 100.0 % Test CRC 2B3A5FE5 Copy CRC 2B3A5FE5 Track not present in AccurateRip database Copy OK
None of the tracks are present in the AccurateRip database
No errors occurred
End of status report
---- CUETools DB Plugin V2.1.6
[CTDB TOCID: JK3Bxqfdb_csrCIrGi6Q6A53Lvg-] disk not present in databaseSubmit result: JK3Bxqfdb_csrCIrGi6Q6A53Lvg- has been uploaded
==== Log checksum 2FB4FFC08CC23F89EBDA71EC808E836346C91D470885EE19C68D6FA15E21CD6E ====

Содержание индексной карты (.CUE)

REM DATE 1999REM DISCID 1F03FA03REM COMMENT "ExactAudioCopy v1.3"PERFORMER "The Freestyle Crew"TITLE "Wildstyle"REM COMPOSER ""FILE "01. The Freestyle Crew - Wildstyle (Short Cut).wav" WAVE  TRACK 01 AUDIO    TITLE "Wildstyle (Short Cut)"    PERFORMER "The Freestyle Crew"    REM COMPOSER ""    INDEX 01 00:00:00  TRACK 02 AUDIO    TITLE "Wildstyle (Club Mix)"    PERFORMER "The Freestyle Crew"    REM COMPOSER ""    INDEX 00 04:24:25FILE "02. The Freestyle Crew - Wildstyle (Club Mix).wav" WAVE    INDEX 01 00:00:00  TRACK 03 AUDIO    TITLE "Wildstyle (Murder Club Mix)"    PERFORMER "The Freestyle Crew"    REM COMPOSER ""    INDEX 00 06:04:40FILE "03. The Freestyle Crew - Wildstyle (Murder Club Mix).wav" WAVE    INDEX 01 00:00:00
Вы не можете начинать темы
Вы не можете отвечать на сообщения
Вы не можете редактировать свои сообщения
Вы не можете удалять свои сообщения
Вы не можете голосовать в опросах
Вы не можете прикреплять файлы к сообщениям
Вы можете скачивать файлы
!ВНИМАНИЕ!

Сайт не предоставляет электронные версии произведений, а занимается лишь коллекционированием и каталогизацией ссылок, присылаемых и публикуемых на форуме нашими читателями. Если вы являетесь правообладателем какого-либо представленного материала и не желаете, чтобы ссылка на него находилась в нашем каталоге, свяжитесь с нами, и мы незамедлительно удалим ее. Файлы для обмена на трекере предоставлены пользователями сайта, и администрация не несет ответственности за их содержание. Просьба не заливать файлы, защищенные авторскими правами, а также файлы нелегального содержания!

Искали программы, игры, дополнения, музыка mp3, аниме, аудио книги, журналы? Добро пожаловать на свободный торрент трекер Torrents, у нас можно скачать бесплатно, без смс и регистрации и прочих ограничений лучшие, отборные сборки программ, игр. Скачать торрентом не составит труда даже не опытному пользователю. Раздачи ежедневно обновляются, только лучшие и качественные раздачи, подробные описания и скриншоты. Огромная коллекция программ для работы со звуком, графикой, дизайном, а так же множество плагинов и инструментов к ним с подробной инструкцией и рекомендациями. Прошивки для навигаторов, карты. Разнообразные игры, для Windows, Linux. В коллекцие есть и старые игры любых жанров, Rpg, Action, Shooter, strategy Множество дополнений, модификаций, сценариев для популярных игр в жанре экш, рпг, гонки, стратегии, логические игры. Множество аддонов и сценариев для Microsoft Flight Simulator Большая коллекция книг, учебников. Если нет возможности купить печатное издание - смело скачивайте цифровую версию книги или, быть может, журнала. Не любите читать - можно загрузить бесплатно аудикнигу. Для веб дизайнеров и программистов так же найдется множество специализированного софта, таких как: редакторы с подсветкой, среды программирования, компоненты, системы управления базами данных, разнообразные скрипты и шаблоны. Не так давно у нас появился материал для автолюбителей и владельцев мото - оригинальные и неоригинальные каталоги запчастей, книги и журналы по ремонту и обслуживанию, видеоуроки, статьи по чип тюнингу, прошивкам. Процедура получения контента элементарная, достаточно просто скачать торрент файл и добавить его в загрузку в вашем торрент клиенте. Если у вас нет специального торрент клиента, вы можете его скачать у нас.