(Electro) [CD] Kurtis Mantronik - I Sing The Body Electro - 1999, FLAC (image+.cue), lossless 

Цитировать
Kurtis Mantronik / I Sing The Body Electro
Жанр: Electro
Носитель: CD
Страна-производитель диска (релиза): Belgium
Год издания: 1999
Издатель (лейбл): OMW (Oxygen Music Works)
Номер по каталогу: PIASB 001 CD
Аудиокодек: FLAC (*.flac)
Тип рипа: image+.cue
Битрейт аудио: lossless
Продолжительность: 01:02:39
Источник (релизер): Собственный рип
Наличие сканов в содержимом раздачи: нет
Треклист:
01.King Of The Beat v3.0 06:44
02.Mad 04:18
03.On The Beatbox 03:53
04.Push Yer Hands Up 03:40
05.One Time, Feel Fine 03:51
06.Original Electro 03:56
07.Seek And Destroy 04:24
08.Baby, You Blow My Mind 03:26
09.Cow Bites Man 03:23
10.Bass Machine Re-Tuned 04:29
11.Hush 04:01
12.Mad - Killer Robot Formula 04:19
13.Push Yer Hands Up (On The Money Scratch Mix) 06:40
14.Rock With Me 05:29

Лог создания рипа

Exact Audio Copy V1.0 beta 3 from 29. August 2011
Отчёт EAC об извлечении, выполненном 17. марта 2018, 17:15
Kurtis Mantronik / I Sing The Body Electro
Дисковод: Optiarc DVD RW AD-7200S Adapter: 3 ID: 0
Режим чтения : ДостоверностьИспользование точного потока : ДаОтключение кэша аудио : ДаИспользование указателей C2 : Нет
Коррекция смещения при чтении : 48Способность читать области Lead-in и Lead-out : НетЗаполнение пропущенных сэмплов тишиной : ДаУдаление блоков с тишиной в начале и конце : НетПри вычислениях CRC использовались нулевые сэмплы : ДаИнтерфейс : Установленный внешний ASPI-интерфейс
Выходной формат : Пользовательский кодировщикВыбранный битрейт : 1024 kBit/sКачество : ВысокийДобавление ID3-тега : НетУтилита сжатия : C:\Program Files\Exact Audio Copy\FLAC\FLAC.EXEДополнительные параметры : -V -8 -T "Date=%year%" -T "Genre=%genre%" %source%
TOC извлечённого CD
Трек | Старт | Длительность | Начальный сектор | Конечный сектор --------------------------------------------------------------------- 1 | 0:00.00 | 6:44.35 | 0 | 30334 2 | 6:44.35 | 4:18.17 | 30335 | 49701 3 | 11:02.52 | 3:53.25 | 49702 | 67201 4 | 14:56.02 | 3:40.20 | 67202 | 83721 5 | 18:36.22 | 3:51.30 | 83722 | 101076 6 | 22:27.52 | 3:56.05 | 101077 | 118781 7 | 26:23.57 | 4:24.13 | 118782 | 138594 8 | 30:47.70 | 3:26.67 | 138595 | 154111 9 | 34:14.62 | 3:23.38 | 154112 | 169374 10 | 37:38.25 | 4:29.57 | 169375 | 189606 11 | 42:08.07 | 4:01.43 | 189607 | 207724 12 | 46:09.50 | 4:19.65 | 207725 | 227214 13 | 50:29.40 | 6:40.12 | 227215 | 257226 14 | 57:09.52 | 5:28.70 | 257227 | 281896
Характеристики диапазона извлечения и сообщения об ошибках
Выбранный диапазон
Имя файла C:\Users\ASUS\Music\Аудио\Kurtis Mantronik - I Sing The Body Electro.wav
Пиковый уровень 100.0 % Скорость извлечения 4.1 X Качество диапазона 100.0 % CRC теста 84229335 CRC копии 84229335 Копирование... OK
Ошибок не произошло
AccurateRip: сводка
Трек 1 : извлечено точно (доверие 1) [38CBC090] (AR v1)Трек 2 : извлечено точно (доверие 1) [BC63ECB7] (AR v1)Трек 3 : извлечено точно (доверие 1) [3FB68169] (AR v1)Трек 4 : извлечено точно (доверие 1) [921F7D45] (AR v1)Трек 5 : извлечено точно (доверие 1) [09F62BD7] (AR v1)Трек 6 : извлечено точно (доверие 1) [17AEB533] (AR v1)Трек 7 : извлечено точно (доверие 1) [CDC794DD] (AR v1)Трек 8 : извлечено точно (доверие 1) [DAAB297A] (AR v1)Трек 9 : извлечено точно (доверие 1) [B50A71A5] (AR v1)Трек 10 : извлечено точно (доверие 1) [B32124CC] (AR v1)Трек 11 : извлечено точно (доверие 1) [A4569C5E] (AR v1)Трек 12 : извлечено точно (доверие 1) [306371C8] (AR v1)Трек 13 : извлечено точно (доверие 1) [56598CCF] (AR v1)Трек 14 : извлечено точно (доверие 1) [97497CB9] (AR v1)
Все треки извлечены точно
Конец отчёта
==== Контрольная сумма отчёта 645669E575EA6735681EFC39D404A035702162FE2EDF7BDE2FB791E3B51ACFB3 ====

Содержание индексной карты (.CUE)

REM GENRE ElectroREM DATE 1999REM DISCID BE0EAE0EREM COMMENT "ExactAudioCopy v1.0b3"PERFORMER "Kurtis Mantronik"TITLE "I Sing The Body Electro"FILE "Kurtis Mantronik - I Sing The Body Electro.flac" WAVE  TRACK 01 AUDIO    TITLE "King Of The Beat v.3.0"    PERFORMER "Kurtis Mantronik"    INDEX 01 00:00:00  TRACK 02 AUDIO    TITLE "Mad"    PERFORMER "Kurtis Mantronik"    INDEX 00 06:43:15    INDEX 01 06:44:35  TRACK 03 AUDIO    TITLE "On The Beatbox"    PERFORMER "Kurtis Mantronik"    INDEX 00 11:01:35    INDEX 01 11:02:52  TRACK 04 AUDIO    TITLE "Push Yer Hands Up"    PERFORMER "Kurtis Mantronik"    INDEX 00 14:54:50    INDEX 01 14:56:02  TRACK 05 AUDIO    TITLE "One Time, Feel Fine"    PERFORMER "Kurtis Mantronik"    INDEX 00 18:30:20    INDEX 01 18:36:22  TRACK 06 AUDIO    TITLE "Original Electro"    PERFORMER "Kurtis Mantronik"    INDEX 00 22:26:35    INDEX 01 22:27:52  TRACK 07 AUDIO    TITLE "Seek And Destroy"    PERFORMER "Kurtis Mantronik"    INDEX 00 26:22:32    INDEX 01 26:23:57  TRACK 08 AUDIO    TITLE "Baby, You Blow My Mind"    PERFORMER "Kurtis Mantronik"    INDEX 00 30:46:50    INDEX 01 30:47:70  TRACK 09 AUDIO    TITLE "Cow Bites Man"    PERFORMER "Kurtis Mantronik"    INDEX 00 34:13:45    INDEX 01 34:14:62  TRACK 10 AUDIO    TITLE "Bass Machine Re-tuned"    PERFORMER "Kurtis Mantronik"    INDEX 00 37:36:70    INDEX 01 37:38:25  TRACK 11 AUDIO    TITLE "Hush"    PERFORMER "Kurtis Mantronik"    INDEX 00 42:06:65    INDEX 01 42:08:07  TRACK 12 AUDIO    TITLE "Mad (Killer Robot Formula)"    PERFORMER "Kurtis Mantronik"    INDEX 01 46:09:50  TRACK 13 AUDIO    TITLE "Push Yer Hands Up (On The Money Scratch Mix)"    PERFORMER "Kurtis Mantronik"    INDEX 01 50:29:40  TRACK 14 AUDIO    TITLE "Rock With Me"    PERFORMER "Kurtis Mantronik"    INDEX 01 57:09:52
Вы не можете начинать темы
Вы не можете отвечать на сообщения
Вы не можете редактировать свои сообщения
Вы не можете удалять свои сообщения
Вы не можете голосовать в опросах
Вы не можете прикреплять файлы к сообщениям
Вы можете скачивать файлы
!ВНИМАНИЕ!

Сайт не предоставляет электронные версии произведений, а занимается лишь коллекционированием и каталогизацией ссылок, присылаемых и публикуемых на форуме нашими читателями. Если вы являетесь правообладателем какого-либо представленного материала и не желаете, чтобы ссылка на него находилась в нашем каталоге, свяжитесь с нами, и мы незамедлительно удалим ее. Файлы для обмена на трекере предоставлены пользователями сайта, и администрация не несет ответственности за их содержание. Просьба не заливать файлы, защищенные авторскими правами, а также файлы нелегального содержания!

Искали программы, игры, дополнения, музыка mp3, аниме, аудио книги, журналы? Добро пожаловать на свободный торрент трекер Torrents, у нас можно скачать бесплатно, без смс и регистрации и прочих ограничений лучшие, отборные сборки программ, игр. Скачать торрентом не составит труда даже не опытному пользователю. Раздачи ежедневно обновляются, только лучшие и качественные раздачи, подробные описания и скриншоты. Огромная коллекция программ для работы со звуком, графикой, дизайном, а так же множество плагинов и инструментов к ним с подробной инструкцией и рекомендациями. Прошивки для навигаторов, карты. Разнообразные игры, для Windows, Linux. В коллекцие есть и старые игры любых жанров, Rpg, Action, Shooter, strategy Множество дополнений, модификаций, сценариев для популярных игр в жанре экш, рпг, гонки, стратегии, логические игры. Множество аддонов и сценариев для Microsoft Flight Simulator Большая коллекция книг, учебников. Если нет возможности купить печатное издание - смело скачивайте цифровую версию книги или, быть может, журнала. Не любите читать - можно загрузить бесплатно аудикнигу. Для веб дизайнеров и программистов так же найдется множество специализированного софта, таких как: редакторы с подсветкой, среды программирования, компоненты, системы управления базами данных, разнообразные скрипты и шаблоны. Не так давно у нас появился материал для автолюбителей и владельцев мото - оригинальные и неоригинальные каталоги запчастей, книги и журналы по ремонту и обслуживанию, видеоуроки, статьи по чип тюнингу, прошивкам. Процедура получения контента элементарная, достаточно просто скачать торрент файл и добавить его в загрузку в вашем торрент клиенте. Если у вас нет специального торрент клиента, вы можете его скачать у нас.