(Electro, IDM, Ambient) [WEB] Morphology — Traveller, [FireScope: FS011], 2018, FLAC (tracks), lossless 

Цитировать
Morphology — Traveller (2018, FireScope)- Жанр: Electronic
Стиль: Electro, IDM, Ambient
Формат: WEB
Год издания: 2018
Издатель (лейбл): FireScope
Номер по каталогу: FS011
Страна исполнителя (группы): Finland
Аудиокодек: FLAC (*.flac)
Тип рипа: tracks
Продолжительность: 00:50:30
Источник: bandcamp
Наличие сканов в содержимом раздачи: только обложка
-Треклист:
01. Morphology - Distant Signal [03:59]
02. Morphology - Second Light [05:20]
03. Morphology - Farthest Regions [05:18]
04. Morphology - Hidden Variable [05:35]
05. Morphology - Memory Fragments [02:07]
06. Morphology - Detached [04:37]
07. Morphology - Pod Bay 8 [05:56]
08. Morphology - Bipolar Nebula [05:46]
09. Morphology - Kernel Method [05:38]
10. Morphology - Deuteros [06:14]-Полезные ссылки:
MusicBrainz: Morphology — Traveller
Bandcamp: Morphology — Traveller-

Лог проверки качества

-----------------------
DON'T MODIFY THIS FILE
-----------------------
PERFORMER: auCDtect Task Manager, ver. 1.6.0 RC1 build 1.6.0.1Copyright (c) 2008-2010 y-soft. All rights reservedhttp://y-soft.org
ANALYZER: auCDtect: CD records authenticity detector, version 0.8.2Copyright (c) 2004 Oleg Berngardt. All rights reserved.Copyright (c) 2004 Alexander Djourik. All rights reserved.
FILE: 10. Deuteros.flac Size: 29900934 Hash: DE8C8B4E13EF6EFF1528FE7C034865AF Accuracy: -m0 Conclusion: CDDA 100% Signature: 6C78DD8A1A0E2B559164516F9071929854A969D4FILE: 09. Kernel Method.flac Size: 34608587 Hash: 31659BDE6B17975DF4D5F3B7DCD09DE9 Accuracy: -m0 Conclusion: CDDA 99% Signature: 789B5B620EDF81BAF316A858224943E34FC13C5FFILE: 08. Bipolar Nebula.flac Size: 32134412 Hash: 9E05BA9E68840F93C14744223895D71D Accuracy: -m0 Conclusion: CDDA 100% Signature: C856162836DFF11552DCB68E3E36A0B9385A4CC0FILE: 07. Pod Bay 8.flac Size: 36961808 Hash: 7E6DFE333A552E7EF50B6F3CD315FA2D Accuracy: -m0 Conclusion: CDDA 99% Signature: B5794A1D558AB063F6E027D121C1A9DB6ADB1474FILE: 06. Detached.flac Size: 29558587 Hash: 7524EADF53F5F199D270625BCE481D35 Accuracy: -m0 Conclusion: CDDA 100% Signature: C8C46436D0D572C1A850B19222D071AE17E164D7FILE: 05. Memory Fragments.flac Size: 8974474 Hash: E83159E3C42E425CD9F78A27F8D4A6AE Accuracy: -m0 Conclusion: CDDA 99% Signature: 6826D3A1A170887C71C62B141A40E961115D496AFILE: 04. Hidden Variable.flac Size: 32629603 Hash: 37CBCA6DC8A61278F3C3479A116FEB07 Accuracy: -m0 Conclusion: CDDA 100% Signature: E41769B17B0B38A38FF7BA7267F257A4B6FA146AFILE: 03. Farthest Regions.flac Size: 31181093 Hash: 51D2A76CD1A7A1E66CE89CF816F07CDE Accuracy: -m0 Conclusion: CDDA 100% Signature: D99E77128FC3B56199E31755AEC411A7A5FC1579FILE: 02. Second Light.flac Size: 32683523 Hash: 6368BD84F0DC0234EEF70728AB50BEFE Accuracy: -m0 Conclusion: CDDA 92% Signature: 79D12B017101B80360DEC019BA2CCE86DBEDB937FILE: 01. Distant Signal.flac Size: 20318796 Hash: C5DB1EBD0129674E46DBE0BC18A2F7AB Accuracy: -m0 Conclusion: CDDA 100% Signature: 871EFE57BEB3F45E8A2671D1F3C56EFC06EFA8E0

Скриншот спектра частот










Замер динамического диапазона (DRM)

foobar2000 1.3.17 / Dynamic Range Meter 1.1.1
log date: 2018-06-07 12:06:02
--------------------------------------------------------------------------------
Analyzed: Morphology / Traveller
--------------------------------------------------------------------------------
DR Peak RMS Duration Track
--------------------------------------------------------------------------------
DR9 -0.30 dB -12.41 dB 4:00 01-Distant Signal
DR7 -0.29 dB -10.81 dB 5:21 02-Second Light
DR9 -0.29 dB -11.97 dB 5:18 03-Farthest Regions
DR5 -0.29 dB -7.51 dB 5:35 04-Hidden Variable
DR10 -0.30 dB -16.40 dB 2:07 05-Memory Fragments
DR6 -0.30 dB -8.89 dB 4:38 06-Detached
DR6 -0.29 dB -7.44 dB 5:56 07-Pod Bay 8
DR9 -0.29 dB -12.68 dB 5:47 08-Bipolar Nebula
DR6 -0.29 dB -8.96 dB 5:39 09-Kernel Method
DR8 -0.30 dB -12.44 dB 6:15 10-Deuteros
--------------------------------------------------------------------------------
Number of tracks: 10
Official DR value: DR8
Samplerate: 44100 Hz
Channels: 2
Bits per sample: 16
Bitrate: 630 kbps
Codec: FLAC
================================================================================
Вы не можете начинать темы
Вы не можете отвечать на сообщения
Вы не можете редактировать свои сообщения
Вы не можете удалять свои сообщения
Вы не можете голосовать в опросах
Вы не можете прикреплять файлы к сообщениям
Вы можете скачивать файлы
!ВНИМАНИЕ!

Сайт не предоставляет электронные версии произведений, а занимается лишь коллекционированием и каталогизацией ссылок, присылаемых и публикуемых на форуме нашими читателями. Если вы являетесь правообладателем какого-либо представленного материала и не желаете, чтобы ссылка на него находилась в нашем каталоге, свяжитесь с нами, и мы незамедлительно удалим ее. Файлы для обмена на трекере предоставлены пользователями сайта, и администрация не несет ответственности за их содержание. Просьба не заливать файлы, защищенные авторскими правами, а также файлы нелегального содержания!

Искали программы, игры, дополнения, музыка mp3, аниме, аудио книги, журналы? Добро пожаловать на свободный торрент трекер Torrents, у нас можно скачать бесплатно, без смс и регистрации и прочих ограничений лучшие, отборные сборки программ, игр. Скачать торрентом не составит труда даже не опытному пользователю. Раздачи ежедневно обновляются, только лучшие и качественные раздачи, подробные описания и скриншоты. Огромная коллекция программ для работы со звуком, графикой, дизайном, а так же множество плагинов и инструментов к ним с подробной инструкцией и рекомендациями. Прошивки для навигаторов, карты. Разнообразные игры, для Windows, Linux. В коллекцие есть и старые игры любых жанров, Rpg, Action, Shooter, strategy Множество дополнений, модификаций, сценариев для популярных игр в жанре экш, рпг, гонки, стратегии, логические игры. Множество аддонов и сценариев для Microsoft Flight Simulator Большая коллекция книг, учебников. Если нет возможности купить печатное издание - смело скачивайте цифровую версию книги или, быть может, журнала. Не любите читать - можно загрузить бесплатно аудикнигу. Для веб дизайнеров и программистов так же найдется множество специализированного софта, таких как: редакторы с подсветкой, среды программирования, компоненты, системы управления базами данных, разнообразные скрипты и шаблоны. Не так давно у нас появился материал для автолюбителей и владельцев мото - оригинальные и неоригинальные каталоги запчастей, книги и журналы по ремонту и обслуживанию, видеоуроки, статьи по чип тюнингу, прошивкам. Процедура получения контента элементарная, достаточно просто скачать торрент файл и добавить его в загрузку в вашем торрент клиенте. Если у вас нет специального торрент клиента, вы можете его скачать у нас.