(Dubstep, Hip Hop, Dub, Electro, Breakbeat) [CD] VA - A Hundred Effects - 2011 [FX 100], FLAC (tracks+.cue), lossless 

Цитировать
A Hundred Effects
Жанр: Dubstep, Hip Hop, Dub, Electro, Breakbeat
Носитель: CD
Страна-производитель диска (релиза): France
Год издания: 2011
Издатель (лейбл): Jarring Effects
Номер по каталогу: FX 100
Аудиокодек: FLAC (*.flac)
Тип рипа: tracks+.cue
Битрейт аудио: lossless
Продолжительность: 02:34:28
Источник (релизер): обмен
Наличие сканов в содержимом раздачи: нет
Треклист:

CD1 - Dub to Dubstep (00:55:21)

01 - Improvisators Dub & High Tone - Dub Fever (4:14)
02 - High Tone - Come to Teach (feat. Brother Culture) (4:23)
03 - High Tone - Spank (Niveau Zero Remix) (4:31)
04 - Brain Damage - Mundhu (Dub Addict Remix) (3:26)
05 - Brain Damage Dub Sessions & Sir Jean - Royale Salute (4:09)
06 - Löbe Radiant Dub System - Seaboard Costline (Mayd Hubb Remix) (4:58)
07 - Kaly Live Dub - Infection (3:48)
08 - Twelve - Dub War (4:37)
09 - Kaly Live Dub - What a Life (Vibronics Remix) (3:48)
10 - Led Piperz - Rolla Bearings (4:36)
11 - High Tone - Rub-A-Dub Anthem (Dub Addict Remix) (12:52)

Лог создания рипа

Exact Audio Copy V1.0 beta 2 from 29. April 2011
EAC extraction logfile from 7. October 2011, 23:33
Various Artists / FX100, a Hundred Effects
Used drive : PLDS DVD+-RW DH-16A6S Adapter: 1 ID: 0
Read mode : SecureUtilize accurate stream : YesDefeat audio cache : YesMake use of C2 pointers : No
Read offset correction : 6Overread into Lead-In and Lead-Out : NoFill up missing offset samples with silence : YesDelete leading and trailing silent blocks : NoNull samples used in CRC calculations : YesUsed interface : Native Win32 interface for Win NT & 2000Gap handling : Appended to previous track
Used output format : User Defined EncoderSelected bitrate : 1024 kBit/sQuality : HighAdd ID3 tag : NoCommand line compressor : C:\Program Files\foobar2000\flac.exeAdditional command line options : -8 -V -T "ARTIST=%artist%" -T "TITLE=%title%" -T "ALBUM=%albumtitle%" -T "DATE=%year%" -T "TRACKNUMBER=%tracknr%" -T "GENRE=%genre%" -T "PERFORMER=%albuminterpret%" -T "COMPOSER=%composer%" %haslyrics%--tag-from-file=LYRICS
TOC of the extracted CD
Track | Start | Length | Start sector | End sector --------------------------------------------------------- 1 | 0:00.00 | 4:13.69 | 0 | 19043 2 | 4:13.69 | 4:22.66 | 19044 | 38759 3 | 8:36.60 | 4:31.32 | 38760 | 59116 4 | 13:08.17 | 3:25.50 | 59117 | 74541 5 | 16:33.67 | 4:08.72 | 74542 | 93213 6 | 20:42.64 | 4:57.41 | 93214 | 115529 7 | 25:40.30 | 3:48.30 | 115530 | 132659 8 | 29:28.60 | 4:36.49 | 132660 | 153408 9 | 34:05.34 | 3:47.48 | 153409 | 170481 10 | 37:53.07 | 4:36.11 | 170482 | 191192 11 | 42:29.18 | 12:51.47 | 191193 | 249064
Track 1
Filename C:\Various Artists - FX100, a Hundred Effects\CD1 - Dub to Dubstep\01 Improvisators Dub & High Tone - Dub Fever.wav
Pre-gap length 0:00:02.00
Peak level 98.8 % Extraction speed 4.3 X Track quality 100.0 % Test CRC B0ADD477 Copy CRC B0ADD477 Track not present in AccurateRip database Copy OK
Track 2
Filename C:\Various Artists - FX100, a Hundred Effects\CD1 - Dub to Dubstep\02 High Tone - Come to Teach (feat. Brother Culture).wav
Peak level 98.8 % Extraction speed 4.8 X Track quality 100.0 % Test CRC A3990E33 Copy CRC A3990E33 Track not present in AccurateRip database Copy OK
Track 3
Filename C:\Various Artists - FX100, a Hundred Effects\CD1 - Dub to Dubstep\03 High Tone - Spank (Niveau Zero Remix).wav
Peak level 98.9 % Extraction speed 5.3 X Track quality 100.0 % Test CRC 4E60F864 Copy CRC 4E60F864 Track not present in AccurateRip database Copy OK
Track 4
Filename C:\Various Artists - FX100, a Hundred Effects\CD1 - Dub to Dubstep\04 Brain Damage - Mundhu (Dub Addict Remix).wav
Peak level 98.9 % Extraction speed 5.5 X Track quality 100.0 % Test CRC 2C4F3148 Copy CRC 2C4F3148 Track not present in AccurateRip database Copy OK
Track 5
Filename C:\Various Artists - FX100, a Hundred Effects\CD1 - Dub to Dubstep\05 Brain Damage Dub Sessions & Sir Jean - Royale Salute.wav
Peak level 98.9 % Extraction speed 4.9 X Track quality 99.9 % Test CRC 96473C1E Copy CRC 96473C1E Track not present in AccurateRip database Copy OK
Track 6
Filename C:\Various Artists - FX100, a Hundred Effects\CD1 - Dub to Dubstep\06 Löbe Radiant Dub System - Seaboard Costline (Mayd Hubb Remix).wav
Peak level 98.9 % Extraction speed 6.5 X Track quality 100.0 % Test CRC 8F49FA58 Copy CRC 8F49FA58 Track not present in AccurateRip database Copy OK
Track 7
Filename C:\Various Artists - FX100, a Hundred Effects\CD1 - Dub to Dubstep\07 Kaly Live Dub - Infection.wav
Peak level 98.8 % Extraction speed 5.4 X Track quality 99.9 % Test CRC 603D566D Copy CRC 603D566D Track not present in AccurateRip database Copy OK
Track 8
Filename C:\Various Artists - FX100, a Hundred Effects\CD1 - Dub to Dubstep\08 Twelve - Dub War.wav
Peak level 98.9 % Extraction speed 7.1 X Track quality 100.0 % Test CRC 82AFBE71 Copy CRC 82AFBE71 Track not present in AccurateRip database Copy OK
Track 9
Filename C:\Various Artists - FX100, a Hundred Effects\CD1 - Dub to Dubstep\09 Kaly Live Dub - What a Life (Vibronics Remix).wav
Peak level 98.9 % Extraction speed 7.1 X Track quality 100.0 % Test CRC 63B25301 Copy CRC 63B25301 Track not present in AccurateRip database Copy OK
Track 10
Filename C:\Various Artists - FX100, a Hundred Effects\CD1 - Dub to Dubstep\10 Led Piperz - Rolla Bearings.wav
Peak level 98.8 % Extraction speed 7.6 X Track quality 100.0 % Test CRC 120B0BCA Copy CRC 120B0BCA Track not present in AccurateRip database Copy OK
Track 11
Filename C:\Various Artists - FX100, a Hundred Effects\CD1 - Dub to Dubstep\11 High Tone - Rub-A-Dub Anthem (Dub Addict Remix).wav
Peak level 98.9 % Extraction speed 8.8 X Track quality 100.0 % Test CRC C54CFC39 Copy CRC C54CFC39 Track not present in AccurateRip database Copy OK
None of the tracks are present in the AccurateRip database
No errors occurred
End of status report
==== Log checksum B95B9D7E7D77742B00960DB66BAA0CA9C32397D286AB5916DF52AFAB890B662E ====

Содержание индексной карты (.CUE)

REM GENRE ElectronicREM DATE 2011REM DISCID 930CF80BREM COMMENT "ExactAudioCopy v1.0b2"PERFORMER "Various Artists"TITLE "FX100, a Hundred Effects"FILE "01 Improvisators Dub & High Tone - Dub Fever.wav" WAVE  TRACK 01 AUDIO    TITLE "Dub Fever"    PERFORMER "Improvisators Dub & High Tone"    ISRC FQHZG1100090    FLAGS DCP    INDEX 01 00:00:00FILE "02 High Tone - Come to Teach (feat. Brother Culture).wav" WAVE  TRACK 02 AUDIO    TITLE "Come to Teach (feat. Brother Culture)"    PERFORMER "High Tone"    ISRC FQHZG1100100    FLAGS DCP    INDEX 01 00:00:00FILE "03 High Tone - Spank (Niveau Zero Remix).wav" WAVE  TRACK 03 AUDIO    TITLE "Spank (Niveau Zero Remix)"    PERFORMER "High Tone"    ISRC FQHZG1100110    FLAGS DCP    INDEX 01 00:00:00FILE "04 Brain Damage - Mundhu (Dub Addict Remix).wav" WAVE  TRACK 04 AUDIO    TITLE "Mundhu (Dub Addict Remix)"    PERFORMER "Brain Damage"    ISRC FQHZG1100120    FLAGS DCP    INDEX 01 00:00:00FILE "05 Brain Damage Dub Sessions & Sir Jean - Royale Salute.wav" WAVE  TRACK 05 AUDIO    TITLE "Royale Salute"    PERFORMER "Brain Damage Dub Sessions & Sir Jean"    ISRC FQHZG1100130    FLAGS DCP    INDEX 01 00:00:00FILE "06 Löbe Radiant Dub System - Seaboard Costline (Mayd Hubb Remix).wav" WAVE  TRACK 06 AUDIO    TITLE "Seaboard Costline (Mayd Hubb Remix)"    PERFORMER "Löbe Radiant Dub System"    ISRC FQHZG1100140    FLAGS DCP    INDEX 01 00:00:00FILE "07 Kaly Live Dub - Infection.wav" WAVE  TRACK 07 AUDIO    TITLE "Infection"    PERFORMER "Kaly Live Dub"    ISRC FQHZG1100150    FLAGS DCP    INDEX 01 00:00:00FILE "08 Twelve - Dub War.wav" WAVE  TRACK 08 AUDIO    TITLE "Dub War"    PERFORMER "Twelve"    ISRC FQHZG1100160    FLAGS DCP    INDEX 01 00:00:00FILE "09 Kaly Live Dub - What a Life (Vibronics Remix).wav" WAVE  TRACK 09 AUDIO    TITLE "What a Life (Vibronics Remix)"    PERFORMER "Kaly Live Dub"    ISRC FQHZG1100160    FLAGS DCP    INDEX 01 00:00:00FILE "10 Led Piperz - Rolla Bearings.wav" WAVE  TRACK 10 AUDIO    TITLE "Rolla Bearings"    PERFORMER "Led Piperz"    ISRC FQHZG1100180    FLAGS DCP    INDEX 01 00:00:00FILE "11 High Tone - Rub-A-Dub Anthem (Dub Addict Remix).wav" WAVE  TRACK 11 AUDIO    TITLE "Rub-A-Dub Anthem (Dub Addict Remix)"    PERFORMER "High Tone"    ISRC FQHZG1100190    FLAGS DCP    INDEX 01 00:00:00

CD2 - Electro Hip Hop (00:47:37)

01 - Thavius Beck & Ben Sharpa - Blame Game (4:23)
02 - Twelve & Non (Shadow Huntaz) - 445am Sunset (4:30)
03 - Oddateee - Not Even One (Si Begg Remix) (5:50)
04 - Sibot & M Sayyid - Sky Lark (3:32)
05 - Dplanet & Konfab - Solar Eclipse (3:52)
06 - Metastaz, Yarah Bravo & Miscellaneous - Supah (5:37)
07 - Le Peuple de l'Herbe - White Line Highway (4:27)
08 - Fumuj - Duck Tape (3:55)
09 - L'Oeuf Raide & Bleubird - Defending the Dream (3:31)
10 - Reverse Engineering & B Dolan - The Storm Never Passed (3:36)
11 - Dplanet & K-the-i??? - Locked (4:24)

Лог создания рипа

Exact Audio Copy V1.0 beta 2 from 29. April 2011
EAC extraction logfile from 8. October 2011, 0:27
Various Artists / FX100, a Hundred Effects
Used drive : PLDS DVD+-RW DH-16A6S Adapter: 1 ID: 0
Read mode : SecureUtilize accurate stream : YesDefeat audio cache : YesMake use of C2 pointers : No
Read offset correction : 6Overread into Lead-In and Lead-Out : NoFill up missing offset samples with silence : YesDelete leading and trailing silent blocks : NoNull samples used in CRC calculations : YesUsed interface : Native Win32 interface for Win NT & 2000Gap handling : Appended to previous track
Used output format : User Defined EncoderSelected bitrate : 1024 kBit/sQuality : HighAdd ID3 tag : NoCommand line compressor : C:\Program Files\foobar2000\flac.exeAdditional command line options : -8 -V -T "ARTIST=%artist%" -T "TITLE=%title%" -T "ALBUM=%albumtitle%" -T "DATE=%year%" -T "TRACKNUMBER=%tracknr%" -T "GENRE=%genre%" -T "PERFORMER=%albuminterpret%" -T "COMPOSER=%composer%" %haslyrics%--tag-from-file=LYRICS
TOC of the extracted CD
Track | Start | Length | Start sector | End sector --------------------------------------------------------- 1 | 0:00.00 | 4:23.29 | 0 | 19753 2 | 4:23.29 | 4:29.71 | 19754 | 39999 3 | 8:53.25 | 5:49.62 | 40000 | 66236 4 | 14:43.12 | 3:31.50 | 66237 | 82111 5 | 18:14.62 | 3:52.29 | 82112 | 99540 6 | 22:07.16 | 5:37.30 | 99541 | 124845 7 | 27:44.46 | 4:26.70 | 124846 | 144865 8 | 32:11.41 | 3:54.68 | 144866 | 162483 9 | 36:06.34 | 3:30.68 | 162484 | 178301 10 | 39:37.27 | 3:36.14 | 178302 | 194515 11 | 43:13.41 | 4:23.65 | 194516 | 214305
Track 1
Filename C:\Various Artists - FX100, a Hundred Effects\CD2 - Hip Hop To Electronica\01 Thavius Beck & Ben Sharpa - Blame Game.wav
Pre-gap length 0:00:02.00
Peak level 98.9 % Extraction speed 1.8 X Track quality 100.0 % Test CRC 85CAA056 Copy CRC 85CAA056 Track not present in AccurateRip database Copy OK
Track 2
Filename C:\Various Artists - FX100, a Hundred Effects\CD2 - Hip Hop To Electronica\02 Twelve & Non (Shadow Huntaz) - 445am Sunset.wav
Peak level 98.9 % Extraction speed 2.1 X Track quality 100.0 % Test CRC 08E8020E Copy CRC 08E8020E Track not present in AccurateRip database Copy OK
Track 3
Filename C:\Various Artists - FX100, a Hundred Effects\CD2 - Hip Hop To Electronica\03 Oddateee - Not Even One (Si Begg Remix).wav
Peak level 98.9 % Extraction speed 2.4 X Track quality 100.0 % Test CRC 1ED43A1E Copy CRC 1ED43A1E Track not present in AccurateRip database Copy OK
Track 4
Filename C:\Various Artists - FX100, a Hundred Effects\CD2 - Hip Hop To Electronica\04 Sibot & M Sayyid - Sky Lark.wav
Peak level 98.9 % Extraction speed 2.4 X Track quality 100.0 % Test CRC 2CCB40FC Copy CRC 2CCB40FC Track not present in AccurateRip database Copy OK
Track 5
Filename C:\Various Artists - FX100, a Hundred Effects\CD2 - Hip Hop To Electronica\05 Dplanet & Konfab - Solar Eclipse.wav
Peak level 98.9 % Extraction speed 1.9 X Track quality 99.9 % Test CRC E4FF4664 Copy CRC E4FF4664 Track not present in AccurateRip database Copy OK
Track 6
Filename C:\Various Artists - FX100, a Hundred Effects\CD2 - Hip Hop To Electronica\06 Metastaz, Yarah Bravo & Miscellaneous - Supah.wav
Peak level 98.9 % Extraction speed 2.9 X Track quality 100.0 % Test CRC E46CF08A Copy CRC E46CF08A Track not present in AccurateRip database Copy OK
Track 7
Filename C:\Various Artists - FX100, a Hundred Effects\CD2 - Hip Hop To Electronica\07 Le Peuple de l'Herbe - White Line Highway.wav
Peak level 98.9 % Extraction speed 2.2 X Track quality 99.9 % Test CRC ECFACB12 Copy CRC ECFACB12 Track not present in AccurateRip database Copy OK
Track 8
Filename C:\Various Artists - FX100, a Hundred Effects\CD2 - Hip Hop To Electronica\08 Fumuj - Duck Tape.wav
Peak level 98.8 % Extraction speed 3.1 X Track quality 100.0 % Test CRC 2B4E6501 Copy CRC 2B4E6501 Track not present in AccurateRip database Copy OK
Track 9
Filename C:\Various Artists - FX100, a Hundred Effects\CD2 - Hip Hop To Electronica\09 L'Oeuf Raide & Bleubird - Defending the Dream.wav
Peak level 98.9 % Extraction speed 3.1 X Track quality 100.0 % Test CRC FC994102 Copy CRC FC994102 Track not present in AccurateRip database Copy OK
Track 10
Filename C:\Various Artists - FX100, a Hundred Effects\CD2 - Hip Hop To Electronica\10 Reverse Engineering & B Dolan - The Storm Never Passed.wav
Peak level 98.9 % Extraction speed 3.3 X Track quality 100.0 % Test CRC 8E5D1D79 Copy CRC 8E5D1D79 Track not present in AccurateRip database Copy OK
Track 11
Filename C:\Various Artists - FX100, a Hundred Effects\CD2 - Hip Hop To Electronica\11 Dplanet & K-the-i - Locked.wav
Peak level 98.9 % Extraction speed 3.5 X Track quality 100.0 % Test CRC BE7473DF Copy CRC BE7473DF Track not present in AccurateRip database Copy OK
None of the tracks are present in the AccurateRip database
No errors occurred
End of status report
==== Log checksum 0312CE99EF7E92F8C6EB3C12F7578FE7220DD58C52A2F21B621B467BE615E3EE ====

Содержание индексной карты (.CUE)

REM GENRE ElectronicREM DATE 2011REM DISCID AE0B290BREM COMMENT "ExactAudioCopy v1.0b2"PERFORMER "Various Artists"TITLE "FX100, a Hundred Effects"FILE "01 Thavius Beck & Ben Sharpa - Blame Game.wav" WAVE  TRACK 01 AUDIO    TITLE "Blame Game"    PERFORMER "Thavius Beck & Ben Sharpa"    ISRC FQHZG1100200    FLAGS DCP    INDEX 01 00:00:00FILE "02 Twelve & Non (Shadow Huntaz) - 445am Sunset.wav" WAVE  TRACK 02 AUDIO    TITLE "445am Sunset"    PERFORMER "Twelve & Non (Shadow Huntaz)"    ISRC FQHZG1100210    FLAGS DCP    INDEX 01 00:00:00FILE "03 Oddateee - Not Even One (Si Begg Remix).wav" WAVE  TRACK 03 AUDIO    TITLE "Not Even One (Si Begg Remix)"    PERFORMER "Oddateee"    ISRC FQHZG1100220    FLAGS DCP    INDEX 01 00:00:00FILE "04 Sibot & M Sayyid - Sky Lark.wav" WAVE  TRACK 04 AUDIO    TITLE "Sky Lark"    PERFORMER "Sibot & M Sayyid"    ISRC FQHZG1100220    FLAGS DCP    INDEX 01 00:00:00FILE "05 Dplanet & Konfab - Solar Eclipse.wav" WAVE  TRACK 05 AUDIO    TITLE "Solar Eclipse"    PERFORMER "Dplanet & Konfab"    ISRC KA8^60900175    FLAGS DCP    INDEX 01 00:00:00FILE "06 Metastaz, Yarah Bravo & Miscellaneous - Supah.wav" WAVE  TRACK 06 AUDIO    TITLE "Supah"    PERFORMER "Metastaz, Yarah Bravo & Miscellaneous"    ISRC FQHZG1100260    FLAGS DCP    INDEX 01 00:00:00FILE "07 Le Peuple de l'Herbe - White Line Highway.wav" WAVE  TRACK 07 AUDIO    TITLE "White Line Highway"    PERFORMER "Le Peuple de l'Herbe"    ISRC FQCM@0900150    FLAGS DCP    INDEX 01 00:00:00FILE "08 Fumuj - Duck Tape.wav" WAVE  TRACK 08 AUDIO    TITLE "Duck Tape"    PERFORMER "Fumuj"    ISRC FQHZG1100280    FLAGS DCP    INDEX 01 00:00:00FILE "09 L'Oeuf Raide & Bleubird - Defending the Dream.wav" WAVE  TRACK 09 AUDIO    TITLE "Defending the Dream"    PERFORMER "L'Oeuf Raide & Bleubird"    ISRC FQHZG1100290    FLAGS DCP    INDEX 01 00:00:00FILE "10 Reverse Engineering & B Dolan - The Storm Never Passed.wav" WAVE  TRACK 10 AUDIO    TITLE "The Storm Never Passed"    PERFORMER "Reverse Engineering & B Dolan"    ISRC FQHZG1100250    FLAGS DCP    INDEX 01 00:00:00FILE "11 Dplanet & K-the-i - Locked.wav" WAVE  TRACK 11 AUDIO    TITLE "Locked"    PERFORMER "Dplanet & K-the-i???"    ISRC FQHZG1100300    FLAGS DCP    INDEX 01 00:00:00

CD3 - UFO (00:51:30)

01 - La Bamba - Juniper (Filastine Remix) (4:15)
02 - EZ3kiel - Kika (Professor Psygrooves Remix) (4:37)
03 - R;Zatz & Black Sifichi - Dark Brown Eyes (4:08)
04 - Kooltrasher & Oddateee - Lost (4:20)
05 - Grosso Gadgetto & Bigg Jus - Sun Burn (2:25)
06 - Oddateee - Not Even One (Si Begg Remix) (3:18)
07 - Scorn - Shake Hands (5:17)
08 - Ohmwerk & Major Klemt - Collision 2 (3:35)
09 - EZ3kiel - Phantom Land (Uzul Remix) (5:50)
10 - Spade & Archer - Un Mojito et je Meurre (feat. France Loisir) (2:33)
11 - Vuneny & Von Magnet - Dancing Plaque (6:01)
12 - Picore & Strings of Consciousness - Labyrinth (5:11)

Лог создания рипа

Exact Audio Copy V1.0 beta 2 from 29. April 2011
EAC extraction logfile from 8. October 2011, 1:34
Various Artists / FX100, a Hundred Effects
Used drive : PLDS DVD+-RW DH-16A6S Adapter: 1 ID: 0
Read mode : SecureUtilize accurate stream : YesDefeat audio cache : YesMake use of C2 pointers : No
Read offset correction : 6Overread into Lead-In and Lead-Out : NoFill up missing offset samples with silence : YesDelete leading and trailing silent blocks : NoNull samples used in CRC calculations : YesUsed interface : Native Win32 interface for Win NT & 2000Gap handling : Appended to previous track
Used output format : User Defined EncoderSelected bitrate : 1024 kBit/sQuality : HighAdd ID3 tag : NoCommand line compressor : C:\Program Files\foobar2000\flac.exeAdditional command line options : -8 -V -T "ARTIST=%artist%" -T "TITLE=%title%" -T "ALBUM=%albumtitle%" -T "DATE=%year%" -T "TRACKNUMBER=%tracknr%" -T "GENRE=%genre%" -T "PERFORMER=%albuminterpret%" -T "COMPOSER=%composer%" %haslyrics%--tag-from-file=LYRICS
TOC of the extracted CD
Track | Start | Length | Start sector | End sector --------------------------------------------------------- 1 | 0:00.00 | 4:14.65 | 0 | 19114 2 | 4:14.65 | 4:37.07 | 19115 | 39896 3 | 8:51.72 | 4:07.56 | 39897 | 58477 4 | 12:59.53 | 4:19.57 | 58478 | 77959 5 | 17:19.35 | 2:24.49 | 77960 | 88808 6 | 19:44.09 | 3:18.08 | 88809 | 103666 7 | 23:02.17 | 5:16.55 | 103667 | 127421 8 | 28:18.72 | 3:35.23 | 127422 | 143569 9 | 31:54.20 | 5:49.47 | 143570 | 169791 10 | 37:43.67 | 2:32.62 | 169792 | 181253 11 | 40:16.54 | 6:01.23 | 181254 | 208351 12 | 46:18.02 | 5:11.36 | 208352 | 231712
Track 1
Filename C:\Various Artists - FX100, a Hundred Effects\CD3 - UFO\01 La Bamba - Juniper (Filastine Remix).wav
Pre-gap length 0:00:02.00
Peak level 98.9 % Extraction speed 1.8 X Track quality 100.0 % Test CRC 6ACBAD7F Copy CRC 6ACBAD7F Track not present in AccurateRip database Copy OK
Track 2
Filename C:\Various Artists - FX100, a Hundred Effects\CD3 - UFO\02 EZ3kiel - Kika (Professor Psygrooves Remix).wav
Peak level 98.8 % Extraction speed 2.1 X Track quality 100.0 % Test CRC 8AC620A3 Copy CRC 8AC620A3 Track not present in AccurateRip database Copy OK
Track 3
Filename C:\Various Artists - FX100, a Hundred Effects\CD3 - UFO\03 R;Zatz & Black Sifichi - Dark Brown Eyes.wav
Peak level 98.8 % Extraction speed 2.3 X Track quality 100.0 % Test CRC C2C6C903 Copy CRC C2C6C903 Track not present in AccurateRip database Copy OK
Track 4
Filename C:\Various Artists - FX100, a Hundred Effects\CD3 - UFO\04 Kooltrasher & Oddateee - Lost.wav
Peak level 98.9 % Extraction speed 2.4 X Track quality 100.0 % Test CRC A5C841DE Copy CRC A5C841DE Track not present in AccurateRip database Copy OK
Track 5
Filename C:\Various Artists - FX100, a Hundred Effects\CD3 - UFO\05 Grosso Gadgetto & Bigg Jus - Sun Burn.wav
Peak level 98.9 % Extraction speed 2.3 X Track quality 100.0 % Test CRC 099DFB3A Copy CRC 099DFB3A Track not present in AccurateRip database Copy OK
Track 6
Filename C:\Various Artists - FX100, a Hundred Effects\CD3 - UFO\06 Oddateee - Not Even One (Si Begg Remix).wav
Peak level 98.9 % Extraction speed 2.6 X Track quality 100.0 % Test CRC 0F72EBE6 Copy CRC 0F72EBE6 Track not present in AccurateRip database Copy OK
Track 7
Filename C:\Various Artists - FX100, a Hundred Effects\CD3 - UFO\07 Scorn - Shake Hands.wav
Peak level 98.9 % Extraction speed 2.3 X Track quality 99.9 % Test CRC 11F6B901 Copy CRC 11F6B901 Track not present in AccurateRip database Copy OK
Track 8
Filename C:\Various Artists - FX100, a Hundred Effects\CD3 - UFO\08 Ohmwerk & Major Klemt - Collision 2.wav
Peak level 98.9 % Extraction speed 2.9 X Track quality 100.0 % Test CRC 49C3F4DE Copy CRC 49C3F4DE Track not present in AccurateRip database Copy OK
Track 9
Filename C:\Various Artists - FX100, a Hundred Effects\CD3 - UFO\09 EZ3kiel - Phantom Land (Uzul Remix).wav
Peak level 98.9 % Extraction speed 3.2 X Track quality 100.0 % Test CRC 2A34BDF0 Copy CRC 2A34BDF0 Track not present in AccurateRip database Copy OK
Track 10
Filename C:\Various Artists - FX100, a Hundred Effects\CD3 - UFO\10 Spade & Archer - Un Mojito et je Meurre (feat. France Loisir).wav
Peak level 98.9 % Extraction speed 3.0 X Track quality 100.0 % Test CRC 4503E0DC Copy CRC 4503E0DC Track not present in AccurateRip database Copy OK
Track 11
Filename C:\Various Artists - FX100, a Hundred Effects\CD3 - UFO\11 Vuneny & Von Magnet - Dancing Plaque.wav
Peak level 98.9 % Extraction speed 3.5 X Track quality 100.0 % Test CRC 8B4F96C3 Copy CRC 8B4F96C3 Track not present in AccurateRip database Copy OK
Track 12
Filename C:\Various Artists - FX100, a Hundred Effects\CD3 - UFO\12 Picore & Strings of Consciousness - Labyrinth.wav
Peak level 98.8 % Extraction speed 3.6 X Track quality 100.0 % Test CRC FE9E2DEF Copy CRC FE9E2DEF Track not present in AccurateRip database Copy OK
None of the tracks are present in the AccurateRip database
No errors occurred
End of status report
==== Log checksum EAC11341127B3D49E7D754FC4CBD7B65F6E5F7557BA9EB0FFD1A5C6FE46D5507 ====

Содержание индексной карты (.CUE)

REM GENRE ElectronicREM DATE 2011REM DISCID 980C110CREM COMMENT "ExactAudioCopy v1.0b2"PERFORMER "Various Artists"TITLE "FX100, a Hundred Effects"FILE "01 La Bamba - Juniper (Filastine Remix).wav" WAVE  TRACK 01 AUDIO    TITLE "Juniper (Filastine Remix)"    PERFORMER "La Bamba"    ISRC FQHZG1100310    FLAGS DCP    INDEX 01 00:00:00FILE "02 EZ3kiel - Kika (Professor Psygrooves Remix).wav" WAVE  TRACK 02 AUDIO    TITLE "Kika (Professor Psygrooves Remix)"    PERFORMER "EZ3kiel"    ISRC FQHZG1100320    FLAGS DCP    INDEX 01 00:00:00FILE "03 R;Zatz & Black Sifichi - Dark Brown Eyes.wav" WAVE  TRACK 03 AUDIO    TITLE "Dark Brown Eyes"    PERFORMER "R;Zatz & Black Sifichi"    ISRC FQHZG1100330    FLAGS DCP    INDEX 01 00:00:00FILE "04 Kooltrasher & Oddateee - Lost.wav" WAVE  TRACK 04 AUDIO    TITLE "Lost"    PERFORMER "Kooltrasher & Oddateee"    ISRC FQHZG1100340    FLAGS DCP    INDEX 01 00:00:00FILE "05 Grosso Gadgetto & Bigg Jus - Sun Burn.wav" WAVE  TRACK 05 AUDIO    TITLE "Sun Burn"    PERFORMER "Grosso Gadgetto & Bigg Jus"    ISRC FQHZG1100350    FLAGS DCP    INDEX 01 00:00:00FILE "06 Oddateee - Not Even One (Si Begg Remix).wav" WAVE  TRACK 06 AUDIO    TITLE "Not Even One (Si Begg Remix)"    PERFORMER "Oddateee"    ISRC FQHZG1100350    FLAGS DCP    INDEX 01 00:00:00FILE "07 Scorn - Shake Hands.wav" WAVE  TRACK 07 AUDIO    TITLE "Shake Hands"    PERFORMER "Scorn"    ISRC FQHZG1100370    FLAGS DCP    INDEX 01 00:00:00FILE "08 Ohmwerk & Major Klemt - Collision 2.wav" WAVE  TRACK 08 AUDIO    TITLE "Collision 2"    PERFORMER "Ohmwerk & Major Klemt"    ISRC FQHZG1100380    FLAGS DCP    INDEX 01 00:00:00FILE "09 EZ3kiel - Phantom Land (Uzul Remix).wav" WAVE  TRACK 09 AUDIO    TITLE "Phantom Land (Uzul Remix)"    PERFORMER "EZ3kiel"    ISRC FQHZG1100390    FLAGS DCP    INDEX 01 00:00:00FILE "10 Spade & Archer - Un Mojito et je Meurre (feat. France Loisir).wav" WAVE  TRACK 10 AUDIO    TITLE "Un Mojito et je Meurre (feat. France Loisir)"    PERFORMER "Spade & Archer"    ISRC FQHZG1100400    FLAGS DCP    INDEX 01 00:00:00FILE "11 Vuneny & Von Magnet - Dancing Plaque.wav" WAVE  TRACK 11 AUDIO    TITLE "Dancing Plaque"    PERFORMER "Vuneny & Von Magnet"    ISRC FQHZG1100410    FLAGS DCP    INDEX 01 00:00:00FILE "12 Picore & Strings of Consciousness - Labyrinth.wav" WAVE  TRACK 12 AUDIO    TITLE "Labyrinth"    PERFORMER "Picore & Strings of Consciousness"    ISRC FQHZG1100420    FLAGS DCP    INDEX 01 00:00:00
Вы не можете начинать темы
Вы не можете отвечать на сообщения
Вы не можете редактировать свои сообщения
Вы не можете удалять свои сообщения
Вы не можете голосовать в опросах
Вы не можете прикреплять файлы к сообщениям
Вы можете скачивать файлы
!ВНИМАНИЕ!

Сайт не предоставляет электронные версии произведений, а занимается лишь коллекционированием и каталогизацией ссылок, присылаемых и публикуемых на форуме нашими читателями. Если вы являетесь правообладателем какого-либо представленного материала и не желаете, чтобы ссылка на него находилась в нашем каталоге, свяжитесь с нами, и мы незамедлительно удалим ее. Файлы для обмена на трекере предоставлены пользователями сайта, и администрация не несет ответственности за их содержание. Просьба не заливать файлы, защищенные авторскими правами, а также файлы нелегального содержания!

Искали программы, игры, дополнения, музыка mp3, аниме, аудио книги, журналы? Добро пожаловать на свободный торрент трекер Torrents, у нас можно скачать бесплатно, без смс и регистрации и прочих ограничений лучшие, отборные сборки программ, игр. Скачать торрентом не составит труда даже не опытному пользователю. Раздачи ежедневно обновляются, только лучшие и качественные раздачи, подробные описания и скриншоты. Огромная коллекция программ для работы со звуком, графикой, дизайном, а так же множество плагинов и инструментов к ним с подробной инструкцией и рекомендациями. Прошивки для навигаторов, карты. Разнообразные игры, для Windows, Linux. В коллекцие есть и старые игры любых жанров, Rpg, Action, Shooter, strategy Множество дополнений, модификаций, сценариев для популярных игр в жанре экш, рпг, гонки, стратегии, логические игры. Множество аддонов и сценариев для Microsoft Flight Simulator Большая коллекция книг, учебников. Если нет возможности купить печатное издание - смело скачивайте цифровую версию книги или, быть может, журнала. Не любите читать - можно загрузить бесплатно аудикнигу. Для веб дизайнеров и программистов так же найдется множество специализированного софта, таких как: редакторы с подсветкой, среды программирования, компоненты, системы управления базами данных, разнообразные скрипты и шаблоны. Не так давно у нас появился материал для автолюбителей и владельцев мото - оригинальные и неоригинальные каталоги запчастей, книги и журналы по ремонту и обслуживанию, видеоуроки, статьи по чип тюнингу, прошивкам. Процедура получения контента элементарная, достаточно просто скачать торрент файл и добавить его в загрузку в вашем торрент клиенте. Если у вас нет специального торрент клиента, вы можете его скачать у нас.