[ATV3] В поисках йети / Mission Kathmandu: The Adventures of Nelly & Simon (Пьер Греко, Нэнси Севард / Pierre Greco, Nancy Florence Savard ) [2017, Канада, Мультфильм, комедия, приключения, WEB-DL, HD (1080p)] DUB 

Цитировать
В поисках йети / Mission Kathmandu: The Adventures of Nelly & Simon
-
5.516 / 10 5.60 / 10
- Год выпуска: 2017
Страна: Канада
Жанр: Мультфильм, комедия, приключения
Продолжительность: 01:24:10
Перевод: Дублированный (iTunes)
Оригинальная аудиодорожка: Нет
Cубтитры: Нет
Режиссёр: Пьер Греко, Нэнси Севард
Сценарий: Пьер Греко, Андре Моренси
Продюсер: Нэнси Севард
Композитор: Оливье Ориоль
Художник: Филипп Арсно Бюссьере
Монтаж: Рене Карон
В ролях: Сильви Моро, Гийом Леме-Тивьерж, Рашид Бадури, Александрина Уоррен, Stéphane Crête, Эдгар Фруатье, Себастьен Бенуа, Бертран Ален, Simon-Pierre Gariépy, Мартин Бойли
Сборы в России: $320 207
Мировая премьера: 5 октября 2017
Премьера (РФ): 9 августа 2018, «MEGOGO Distribution»
Описание: Увлекательные приключения частного детектива Нелли и ботаника-ученого Саймона, которые искренне верят в существование снежного человека Йети.
Чтобы доказать, что мифический зверь существует, исследователям придется отправиться в самое сердце Гималаев и найти его!-Качество исходника: WEB-DL 1080p (BlueBird)
Качество: WEB-DL
Тип: HD (1080p)
Контейнер: M4V
Видео: H.264, 1912x1028, 1.85:1, 5 151 Kbps, 23.976 (24000/1001) fps
Аудио 1: Русский/Дублированный (iTunes), AAC LC / 2.0 / 160 Kbps / 48.0 KHz
Аудио 2: Русский/Дублированный (iTunes), AC-3 / 5.1 / 384 Kbps / 48.0 KHz
-

iTunes Meta Tags

Sort Name: В поисках Йети
XID: Apple:vendor_id:2017-1007590
contentID: 1429328946
Screenwriters: Пьер Греко, Андре Моренси
Producers: Нэнси Севард
Director: Пьер Греко & Нэнси Севард
Cast: Сильви Моро, Гийом Леме-Тивьерж, Рашид Бадури, Александрина Уоррен, Stephane Crete, Эдгар Фруатье, Себастьен Бенуа, Бертран Ален, Simon-Pierre Gariépy, Мартин Бойли
Studio: Productions 10th Ave
Rating: 133
Long Description: Увлекательные приключения частного детектива Нелли и ботаника-ученого Саймона, которые искренне верят в существование снежного человека Йети. Чтобы доказать, что мифический зверь существует, исследователям придется отправиться в самое сердце Гималаев и найти его!
Description: Увлекательные приключения частного детектива Нелли и ботаника-ученого Саймона, которые искренне верят в существование снежного человека Йети.
Release Date: 2018-08-09T07:00:00Z
Genre: Для всей семьи
Artist: Пьер Греко & Нэнси Севард
Name: В поисках Йети

MediaInfo

General
Complete name                            : /Users/imac/HandBrake/Mission.Kathmandu.WEB-DL.1080p.m4v
Format                                   : MPEG-4
Codec ID                                 : M4V  (M4V /M4A /mp42/isom)
File size                                : 3.35 GiB
Duration                                 : 1h 24mn
Overall bit rate mode                    : Variable
Overall bit rate                         : 5 699 Kbps
Movie name                               : В поисках Йети
Performer                                : Пьер Греко & Нэнси Севард
Director                                 : Пьер Греко & Нэнси Севард
Actor                                    : Сильви Моро / Гийом Леме-Тивьерж / Рашид Бадури / Александрина Уоррен / Stephane Crete / Эдгар Фруатье / Себастьен Бенуа / Бертран Ален / Simon-Pierre Gariépy / Мартин Бойли
Screenplay by                            : Пьер Греко / Андре Моренси
Producer                                 : Нэнси Севард
Production studio                        : Productions 10th Ave
Genre                                    : Для всей семьи
ContentType                              : Short Film
Description                              : Увлекательные приключения частного детектива Нелли и ботаника-ученого Саймона, которые искренне верят в существование снежного человека Йети.
Recorded date                            : UTC 2018-08-09 07:00:00
Encoded date                             : UTC 2018-10-22 22:41:09
Tagged date                              : UTC 2018-10-22 22:42:27
Cover                                    : Yes
Rating                                   : None
Title/Sort                               : В поисках Йети
LongDescription                          : Увлекательные приключения частного детектива Нелли и ботаника-ученого Саймона, которые искренне верят в существование снежного человека Йети. Чтобы доказать, что мифический зверь существует, исследователям придется отправиться в самое сердце Гималаев и найти его!
AppleStoreCatalogID                      : 1429328946
Vendor                                   : Apple:vendor_id:2017-1007590
ContentRating                            : ru-movie|6+|150|
Video #1
ID                                       : 1
Format                                   : AVC
Format/Info                              : Advanced Video Codec
Format profile                           : High@L4
Format settings                          : CABAC / 4 Ref Frames
Format settings, CABAC                   : Yes
Format settings, ReFrames                : 4 frames
Codec ID                                 : avc1
Codec ID/Info                            : Advanced Video Coding
Duration                                 : 1h 24mn
Bit rate                                 : 5 151 Kbps
Width                                    : 1 912 pixels
Height                                   : 1 028 pixels
Display aspect ratio                     : 1.85:1
Frame rate mode                          : Variable
Frame rate                               : 23.976 (24000/1001) fps
Minimum frame rate                       : 23.810 fps
Maximum frame rate                       : 24.390 fps
Color space                              : YUV
Chroma subsampling                       : 4:2:0
Bit depth                                : 8 bits
Scan type                                : Progressive
Bits/(Pixel*Frame)                       : 0.109
Stream size                              : 3.03 GiB (90%)
Title                                    : Main Program
Language                                 : English
Encoded date                             : UTC 2018-10-22 22:41:09
Tagged date                              : UTC 2018-10-22 22:41:16
Color range                              : Limited
Color primaries                          : BT.709
Transfer characteristics                 : BT.709
Matrix coefficients                      : BT.709
Menus                                    : 4,5
Codec configuration box                  : avcC
Video #2
ID                                       : 5
Format                                   : JPEG
Codec ID                                 : jpeg
Duration                                 : 1h 24mn
Bit rate mode                            : Variable
Bit rate                                 : 651 bps
Width                                    : 640 pixels
Height                                   : 344 pixels
Display aspect ratio                     : 1.85:1
Frame rate mode                          : Variable
Frame rate                               : 0.002 fps
Minimum frame rate                       : 0.001 fps
Maximum frame rate                       : 0.006 fps
Color space                              : YUV
Chroma subsampling                       : 4:2:0
Bit depth                                : 8 bits
Compression mode                         : Lossy
Bits/(Pixel*Frame)                       : 1.478
Stream size                              : 397 KiB (0%)
Title                                    : Chapter Images
Language                                 : English
Default                                  : No
Encoded date                             : UTC 2018-10-22 22:41:22
Tagged date                              : UTC 2018-10-22 22:41:22
Menu For                                 : 1
ColorSpace_ICC                           : RGB
Audio #1
ID                                       : 2
Format                                   : AAC LC
Format/Info                              : Advanced Audio Codec Low Complexity
Codec ID                                 : mp4a-40-2
Duration                                 : 1h 24mn
Source duration                          : 1h 24mn
Bit rate mode                            : Variable
Bit rate                                 : 157 Kbps
Maximum bit rate                         : 241 Kbps
Channel(s)                               : 2 channels
Channel layout                           : L R
Sampling rate                            : 48.0 KHz
Frame rate                               : 46.875 fps (1024 SPF)
Compression mode                         : Lossy
Stream size                              : 94.5 MiB (3%)
Source stream size                       : 94.5 MiB (3%)
Title                                    : Russian Stereo
Language                                 : Russian
Default                                  : Yes
Alternate group                          : 1
Encoded date                             : UTC 2018-10-22 22:41:10
Tagged date                              : UTC 2018-10-22 22:41:18
Fallback From                            : 3
Audio #2
ID                                       : 3
Format                                   : AC-3
Format/Info                              : Audio Coding 3
Commercial name                          : Dolby Digital
Codec ID                                 : ac-3
Duration                                 : 1h 24mn
Bit rate mode                            : Constant
Bit rate                                 : 384 Kbps
Channel(s)                               : 6 channels
Channel layout                           : L R C LFE Ls Rs
Sampling rate                            : 48.0 KHz
Frame rate                               : 31.250 fps (1536 SPF)
Bit depth                                : 16 bits
Compression mode                         : Lossy
Stream size                              : 231 MiB (7%)
Title                                    : Russian DD 5.1
Language                                 : Russian
Service kind                             : Complete Main
Default                                  : Inherited From: 2
Alternate group                          : 1
Encoded date                             : UTC 2018-10-22 22:41:10
Tagged date                              : UTC 2018-10-22 22:41:16
Fallback To                              : 2
Menu #1
00:00:00.000                             : 1
00:03:39.000                             : 2
00:13:18.000                             : 3
00:22:32.000                             : 4
00:32:50.000                             : 5
00:43:19.000                             : 6
00:55:55.000                             : 7
01:06:02.000                             : 8
01:12:20.000                             : 9
01:21:30.000                             : 10
Menu #2
ID                                       : 4
Codec ID                                 : text
Duration                                 : 1h 24mn
Language                                 : English
Encoded date                             : UTC 2018-10-22 22:41:18
Tagged date                              : UTC 2018-10-22 22:41:18
Menu For                                 : 1
00:00:00.000                             : 1
00:03:39.000                             : 2
00:13:18.000                             : 3
00:22:32.000                             : 4
00:32:50.000                             : 5
00:43:19.000                             : 6
00:55:55.000                             : 7
01:06:02.000                             : 8
01:12:20.000                             : 9
01:21:30.000                             : 10
Bit rate mode                            : VBR

Скриншоты

-

Релиз подготовлен для просмотра на Apple TV, iPad, iPhone, iPod Touch.
Для просмотра данного релиза на компьютере с ОС Windows рекомендуется использовать VLC media player
Вы не можете начинать темы
Вы не можете отвечать на сообщения
Вы не можете редактировать свои сообщения
Вы не можете удалять свои сообщения
Вы не можете голосовать в опросах
Вы не можете прикреплять файлы к сообщениям
Вы можете скачивать файлы
!ВНИМАНИЕ!

Сайт не предоставляет электронные версии произведений, а занимается лишь коллекционированием и каталогизацией ссылок, присылаемых и публикуемых на форуме нашими читателями. Если вы являетесь правообладателем какого-либо представленного материала и не желаете, чтобы ссылка на него находилась в нашем каталоге, свяжитесь с нами, и мы незамедлительно удалим ее. Файлы для обмена на трекере предоставлены пользователями сайта, и администрация не несет ответственности за их содержание. Просьба не заливать файлы, защищенные авторскими правами, а также файлы нелегального содержания!

Искали программы, игры, дополнения, музыка mp3, аниме, аудио книги, журналы? Добро пожаловать на свободный торрент трекер Torrents, у нас можно скачать бесплатно, без смс и регистрации и прочих ограничений лучшие, отборные сборки программ, игр. Скачать торрентом не составит труда даже не опытному пользователю. Раздачи ежедневно обновляются, только лучшие и качественные раздачи, подробные описания и скриншоты. Огромная коллекция программ для работы со звуком, графикой, дизайном, а так же множество плагинов и инструментов к ним с подробной инструкцией и рекомендациями. Прошивки для навигаторов, карты. Разнообразные игры, для Windows, Linux. В коллекцие есть и старые игры любых жанров, Rpg, Action, Shooter, strategy Множество дополнений, модификаций, сценариев для популярных игр в жанре экш, рпг, гонки, стратегии, логические игры. Множество аддонов и сценариев для Microsoft Flight Simulator Большая коллекция книг, учебников. Если нет возможности купить печатное издание - смело скачивайте цифровую версию книги или, быть может, журнала. Не любите читать - можно загрузить бесплатно аудикнигу. Для веб дизайнеров и программистов так же найдется множество специализированного софта, таких как: редакторы с подсветкой, среды программирования, компоненты, системы управления базами данных, разнообразные скрипты и шаблоны. Не так давно у нас появился материал для автолюбителей и владельцев мото - оригинальные и неоригинальные каталоги запчастей, книги и журналы по ремонту и обслуживанию, видеоуроки, статьи по чип тюнингу, прошивкам. Процедура получения контента элементарная, достаточно просто скачать торрент файл и добавить его в загрузку в вашем торрент клиенте. Если у вас нет специального торрент клиента, вы можете его скачать у нас.