Я любить тебя буду, можно? (Мария Ефремова) [2017, Россия, мелодрама, WEB-DL 1080p] + Original Rus 

Цитировать
Я любить тебя буду, можно?
Страна: Россия
Жанр: мелодрама
Год выпуска: 2017
Продолжительность: 00:54:30
    -Перевод: Не требуется
    Субтитры: нет
    Оригинальная аудиодорожка: русский
      -Режиссер: Мария Ефремова
        -В ролях: Анатолий Белый, Мария Ефремова, Андрей Чадов, Алёна Яковлева, Мария Берсенева, Михаил Полицеймако, Елена Захарова, Малена Маяковская, Дмитрий Малашенко, Сергей Канаев
        Описание: Вадим и Катя давно живут вместе, но не смотря на внешнее благополучие их пары, в глубине души девушку не устраивает, что любимый не спешит официально оформить отношения. Все подруги давно пошли под венец, и на очередном девичнике Катя знакомится с журналистом Сергеем. Он сразу влюбляется в Катю и настойчиво начинает ухаживать за героиней, но даже признание в любви не смогло растопить ее сердце. Вадим же продолжает избегать любых разговоров о свадьбе. Катя устает ждать и уходит от отношений, которые ее больше не устраивают. Сергею кажется, что он обретает шанс стать ближе к возлюбленной, но Катя уходит не к нему... Вадим же получает повод задуматься и осознать насколько дорога и важна для него Катя. Поймут ли герои как легко потерять и как сложно вернуть доверие и любовь?
          -Тип релиза: WEB-DL 1080p
          Контейнер: MKV
            -Видео: 1920x1040 (1,85:1), 24 fps, MPEG-4 AVC, ~ 5069 kbps, 0.106 Bits/(Pixel*Frame)
              -Аудио: Russian: 48 kHz, AC3, 3/2 (L,C,R,l,r) + LFE ch, ~384.00 kbps avg

              MediaInfo

              Общее
              Уникальный идентификатор : 248644905272750056536288070736235997429 (0xBB0F4450D536EEB9A708C8E689E828F5)
              Полное имя : D:\I.Will.Love.You.One.Can.WEB-DL.1080p..mkv
              Формат : Matroska
              Версия формата : Version 2
              Размер файла : 2,12 Гбайт
              Продолжительность : 54 м. 30 с.
              Общий поток : 5564 Кбит/сек
              Дата кодирования : UTC 2017-07-06 14:32:31
              Программа кодирования : mkvmerge v5.6.0 ('Kenya Kane') built on May 27 2012 16:44:04
              Библиотека кодирования : libebml v1.2.3 + libmatroska v1.3.0
              Видео
              Идентификатор : 1
              Формат : AVC
              Формат/Информация : Advanced Video Codec
              Профиль формата : High@L4
              Параметр CABAC формата : Да
              Параметр ReFrames формата : 4 кадра
              Идентификатор кодека : V_MPEG4/ISO/AVC
              Продолжительность : 54 м. 30 с.
              Битрейт : 5069 Кбит/сек
              Ширина : 1920 пикселей
              Высота : 1040 пикселей
              Соотношение сторон : 1,85:1
              Режим частоты кадров : Постоянный
              Частота кадров : 24,000 кадра/сек
              Цветовое пространство : YUV
              Субдискретизация насыщенности : 4:2:0
              Битовая глубина : 8 бит
              Тип развёртки : Прогрессивная
              Бит/(Пиксели*Кадры) : 0.106
              Размер потока : 1,93 Гбайт (91%)
              Язык : Russian
              Default : Да
              Forced : Нет
              Цветовой диапазон : Limited
              Основные цвета : BT.709
              Характеристики трансфера : BT.709
              Коэффициенты матрицы : BT.709
              Аудио
              Идентификатор : 2
              Формат : AC-3
              Формат/Информация : Audio Coding 3
              Расширение режима : CM (complete main)
              Параметр Endianness формата : Big
              Идентификатор кодека : A_AC3
              Продолжительность : 54 м. 30 с.
              Вид битрейта : Постоянный
              Битрейт : 384 Кбит/сек
              Каналы : 6 каналов
              Расположение каналов : Front: L C R, Side: L R, LFE
              Частота : 48,0 КГц
              Частота кадров : 31,250 кадров/сек (1536 spf)
              Битовая глубина : 16 бит
              Метод сжатия : С потерями
              Размер потока : 150 Мбайт (7%)
              Язык : Russian
              Default : Да
              Forced : Нет
              Меню
              00:00:00.000 : en:1
              00:04:49.000 : en:2
              00:11:28.708 : en:3
              00:14:18.999 : en:4
              00:19:00.832 : en:5
              00:23:51.707 : en:6
              00:28:16.498 : en:7
              00:33:50.123 : en:8
              00:39:20.956 : en:9
              00:44:10.289 : en:10

              Скриншоты

              Вы не можете начинать темы
              Вы не можете отвечать на сообщения
              Вы не можете редактировать свои сообщения
              Вы не можете удалять свои сообщения
              Вы не можете голосовать в опросах
              Вы не можете прикреплять файлы к сообщениям
              Вы можете скачивать файлы
              !ВНИМАНИЕ!

              Сайт не предоставляет электронные версии произведений, а занимается лишь коллекционированием и каталогизацией ссылок, присылаемых и публикуемых на форуме нашими читателями. Если вы являетесь правообладателем какого-либо представленного материала и не желаете, чтобы ссылка на него находилась в нашем каталоге, свяжитесь с нами, и мы незамедлительно удалим ее. Файлы для обмена на трекере предоставлены пользователями сайта, и администрация не несет ответственности за их содержание. Просьба не заливать файлы, защищенные авторскими правами, а также файлы нелегального содержания!

              Искали программы, игры, дополнения, музыка mp3, аниме, аудио книги, журналы? Добро пожаловать на свободный торрент трекер Torrents, у нас можно скачать бесплатно, без смс и регистрации и прочих ограничений лучшие, отборные сборки программ, игр. Скачать торрентом не составит труда даже не опытному пользователю. Раздачи ежедневно обновляются, только лучшие и качественные раздачи, подробные описания и скриншоты. Огромная коллекция программ для работы со звуком, графикой, дизайном, а так же множество плагинов и инструментов к ним с подробной инструкцией и рекомендациями. Прошивки для навигаторов, карты. Разнообразные игры, для Windows, Linux. В коллекцие есть и старые игры любых жанров, Rpg, Action, Shooter, strategy Множество дополнений, модификаций, сценариев для популярных игр в жанре экш, рпг, гонки, стратегии, логические игры. Множество аддонов и сценариев для Microsoft Flight Simulator Большая коллекция книг, учебников. Если нет возможности купить печатное издание - смело скачивайте цифровую версию книги или, быть может, журнала. Не любите читать - можно загрузить бесплатно аудикнигу. Для веб дизайнеров и программистов так же найдется множество специализированного софта, таких как: редакторы с подсветкой, среды программирования, компоненты, системы управления базами данных, разнообразные скрипты и шаблоны. Не так давно у нас появился материал для автолюбителей и владельцев мото - оригинальные и неоригинальные каталоги запчастей, книги и журналы по ремонту и обслуживанию, видеоуроки, статьи по чип тюнингу, прошивкам. Процедура получения контента элементарная, достаточно просто скачать торрент файл и добавить его в загрузку в вашем торрент клиенте. Если у вас нет специального торрент клиента, вы можете его скачать у нас.