(Breaks, Electro) Dynamix II - Machine Language - 1992, FLAC (tracks+.cue), lossless 

Цитировать
Dynamix II / Machine Language
Жанр: Breaks, Electro
Страна-производитель диска: US
Год издания диска: 1992
Издатель (лейбл): Dynamix II Records
Номер по каталогу: DCD 9005
Аудиокодек: FLAC (*.flac)
Тип рипа: tracks+.cue
Битрейт аудио: lossless
Продолжительность: 24:07
Источник (релизер): локалка
Наличие сканов в содержимом раздачи: нет
Треклист:
1 Machine Language
2 Get Out Of My Mind
3 II Evolve The Future
4 Begin Bombing
5 Alone (Waiting In Limbo)
6 Blue Beats

Лог создания рипа

Exact Audio Copy V0.99 prebeta 5 from 4. May 2009
EAC extraction logfile from 20. July 2010, 17:13
Dynamix II / Machine Language
Used drive : HP DVD Writer 1140d Adapter: 2 ID: 0
Read mode : Secure
Utilize accurate stream : Yes
Defeat audio cache : Yes
Make use of C2 pointers : No
Read offset correction : 6
Overread into Lead-In and Lead-Out : No
Fill up missing offset samples with silence : Yes
Delete leading and trailing silent blocks : No
Null samples used in CRC calculations : Yes
Used interface : Native Win32 interface for Win NT & 2000
Gap handling : Appended to previous track
Used output format : User Defined Encoder
Selected bitrate : 320 kBit/s
Quality : High
Add ID3 tag : No
Command line compressor : C:\Program Files\Exact Audio Copy\Flac\flac.exe
Additional command line options : -V -8 -T "artist=%a" -T "title=%t" -T "album=%g" -T "date=%y" -T "tracknumber=%n" -T "genre=%m" %s
TOC of the extracted CD
Track | Start | Length | Start sector | End sector
---------------------------------------------------------
1 | 0:00.32 | 5:05.00 | 32 | 22906
2 | 5:05.32 | 4:39.35 | 22907 | 43866
3 | 9:44.67 | 3:14.13 | 43867 | 58429
4 | 12:59.05 | 3:36.15 | 58430 | 74644
5 | 16:35.20 | 3:19.30 | 74645 | 89599
6 | 19:54.50 | 4:39.55 | 89600 | 110579
Track 1
Filename C:\EACrips\Dynamix II - 1992 - Machine Language [FLAC]\01 - Machine Language.wav
Pre-gap length 0:00:02.42
Peak level 100.0 %
Track quality 100.0 %
Test CRC F4639919
Copy CRC F4639919
Accurately ripped (confidence 7) [439D0762]
Copy OK
Track 2
Filename C:\EACrips\Dynamix II - 1992 - Machine Language [FLAC]\02 - Get Out Of My Mind.wav
Pre-gap length 0:00:03.66
Peak level 100.0 %
Track quality 100.0 %
Test CRC 32B0ED9F
Copy CRC 32B0ED9F
Accurately ripped (confidence 7) [AD84D10E]
Copy OK
Track 3
Filename C:\EACrips\Dynamix II - 1992 - Machine Language [FLAC]\03 - II Evolve The Future.wav
Pre-gap length 0:00:03.33
Peak level 100.0 %
Track quality 100.0 %
Test CRC F58E22C7
Copy CRC F58E22C7
Accurately ripped (confidence 7) [C8FE4723]
Copy OK
Track 4
Filename C:\EACrips\Dynamix II - 1992 - Machine Language [FLAC]\04 - Begin Bombing.wav
Pre-gap length 0:00:03.10
Peak level 98.8 %
Track quality 100.0 %
Test CRC AA86B2FD
Copy CRC AA86B2FD
Accurately ripped (confidence 7) [DA23C8C3]
Copy OK
Track 5
Filename C:\EACrips\Dynamix II - 1992 - Machine Language [FLAC]\05 - Alone (Waiting In Limbo).wav
Pre-gap length 0:00:02.93
Peak level 97.8 %
Track quality 100.0 %
Test CRC 9F3AF57F
Copy CRC 9F3AF57F
Accurately ripped (confidence 7) [43678A0B]
Copy OK
Track 6
Filename C:\EACrips\Dynamix II - 1992 - Machine Language [FLAC]\06 - Blue Beats.wav
Pre-gap length 0:00:03.04
Peak level 100.0 %
Track quality 100.0 %
Test CRC A3EF283C
Copy CRC A3EF283C
Accurately ripped (confidence 7) [C92F08FE]
Copy OK
All tracks accurately ripped
No errors occurred
End of status report

Содержание индексной карты (.CUE)

REM GENRE Electronic
REM DATE 1992
REM DISCID 5905C206
REM COMMENT "ExactAudioCopy v0.99pb5"
FILE "01 - Machine Language.wav" WAVE
TRACK 01 AUDIO
PREGAP 00:00:32
INDEX 01 00:00:00
TRACK 02 AUDIO
INDEX 00 05:01:25
FILE "02 - Get Out Of My Mind.wav" WAVE
INDEX 01 00:00:00
TRACK 03 AUDIO
INDEX 00 04:36:10
FILE "03 - II Evolve The Future.wav" WAVE
INDEX 01 00:00:00
TRACK 04 AUDIO
INDEX 00 03:11:05
FILE "04 - Begin Bombing.wav" WAVE
INDEX 01 00:00:00
TRACK 05 AUDIO
INDEX 00 03:33:20
FILE "05 - Alone (Waiting In Limbo).wav" WAVE
INDEX 01 00:00:00
TRACK 06 AUDIO
INDEX 00 03:16:27
FILE "06 - Blue Beats.wav" WAVE
INDEX 01 00:00:00
Вы не можете начинать темы
Вы не можете отвечать на сообщения
Вы не можете редактировать свои сообщения
Вы не можете удалять свои сообщения
Вы не можете голосовать в опросах
Вы не можете прикреплять файлы к сообщениям
Вы можете скачивать файлы
!ВНИМАНИЕ!

Сайт не предоставляет электронные версии произведений, а занимается лишь коллекционированием и каталогизацией ссылок, присылаемых и публикуемых на форуме нашими читателями. Если вы являетесь правообладателем какого-либо представленного материала и не желаете, чтобы ссылка на него находилась в нашем каталоге, свяжитесь с нами, и мы незамедлительно удалим ее. Файлы для обмена на трекере предоставлены пользователями сайта, и администрация не несет ответственности за их содержание. Просьба не заливать файлы, защищенные авторскими правами, а также файлы нелегального содержания!

Искали программы, игры, дополнения, музыка mp3, аниме, аудио книги, журналы? Добро пожаловать на свободный торрент трекер Torrents, у нас можно скачать бесплатно, без смс и регистрации и прочих ограничений лучшие, отборные сборки программ, игр. Скачать торрентом не составит труда даже не опытному пользователю. Раздачи ежедневно обновляются, только лучшие и качественные раздачи, подробные описания и скриншоты. Огромная коллекция программ для работы со звуком, графикой, дизайном, а так же множество плагинов и инструментов к ним с подробной инструкцией и рекомендациями. Прошивки для навигаторов, карты. Разнообразные игры, для Windows, Linux. В коллекцие есть и старые игры любых жанров, Rpg, Action, Shooter, strategy Множество дополнений, модификаций, сценариев для популярных игр в жанре экш, рпг, гонки, стратегии, логические игры. Множество аддонов и сценариев для Microsoft Flight Simulator Большая коллекция книг, учебников. Если нет возможности купить печатное издание - смело скачивайте цифровую версию книги или, быть может, журнала. Не любите читать - можно загрузить бесплатно аудикнигу. Для веб дизайнеров и программистов так же найдется множество специализированного софта, таких как: редакторы с подсветкой, среды программирования, компоненты, системы управления базами данных, разнообразные скрипты и шаблоны. Не так давно у нас появился материал для автолюбителей и владельцев мото - оригинальные и неоригинальные каталоги запчастей, книги и журналы по ремонту и обслуживанию, видеоуроки, статьи по чип тюнингу, прошивкам. Процедура получения контента элементарная, достаточно просто скачать торрент файл и добавить его в загрузку в вашем торрент клиенте. Если у вас нет специального торрент клиента, вы можете его скачать у нас.