(Electro, Techno) VA - Recloned A Collection Of Remixes - 2006, FLAC (tracks+.cue), lossless 

Цитировать
Recloned A Collection Of Remixes
Жанр: Electro, Techno
Год издания: 2006
Издатель (лейбл): Clone
Номер по каталогу: C#cd9
Аудиокодек: FLAC (*.flac)
Тип рипа: tracks+.cue
Битрейт аудио: lossless
Продолжительность: 68:54
Источник (релизер): what.cd
Наличие сканов в содержимом раздачи: нет
Треклист:
01. Pauli vs. Alden Tyrell - Little (S.Y.D. Remix) [06:13]
02. Putsch '79 - Doing It (Major Swellings Full Trommis Miks) [06:55]
03. Delgui - Highlights (Charles Webster Remix) [06:16]
04. Alden Tyrell - Disco Lunar Module (Lindstrøm & Prins Thomas Remix) [06:58]
05. Alden Tyrell - La Voix (Elitechnique Remix) [05:56]
06. Applegarden - Twentyfive 6 Four (Putsch '79 Remix) [06:32]
07. Jupiter Black - We Like Moroder (Divider Remix) [07:05]
08. Unit 4 - Bodydub (Tiefschwarz Remix) [06:59]
09. ADULT. - Hand To Phone (Carl Craig Remix) [05:23]
10. Marcus Mixx - Shake That Thing (Legowelt Remix) [05:20]
11. Seymour Bits presents De Jeugd Van Tegenwoordig - Watskeburt?! (Dexter's Remix) [05:13]

Лог создания рипа

Exact Audio Copy V1.0 beta 3 from 29. August 2011
EAC extraction logfile from 29. August 2012, 23:05
Various / Recloned: A Collection Of Remixes
Used drive : _NEC DVD+-RW ND-3530A Adapter: 0 ID: 1
Read mode : Secure
Utilize accurate stream : Yes
Defeat audio cache : Yes
Make use of C2 pointers : No
Read offset correction : 48
Overread into Lead-In and Lead-Out : No
Fill up missing offset samples with silence : Yes
Delete leading and trailing silent blocks : No
Null samples used in CRC calculations : Yes
Used interface : Native Win32 interface for Win NT & 2000
Gap handling : Appended to previous track
Used output format : User Defined Encoder
Selected bitrate : 1024 kBit/s
Quality : High
Add ID3 tag : No
Command line compressor : C:\Programme\Exact Audio Copy 1.0beta3\Flac\flac.exe
Additional command line options : -8 -V -T "ARTIST=%artist%" -T "TITLE=%title%" -T "ALBUM=%albumtitle%" -T "DATE=%year%" -T "TRACKNUMBER=%tracknr%" -T "GENRE=%genre%" -T "PERFORMER=%albuminterpret%" -T "COMPOSER=%composer%" %haslyrics%--tag-from-file=LYRICS="%lyricsfile%"%haslyrics% -T "ALBUMARTIST=%albumartist%" -T "DISCNUMBER=%cdnumber%" -T "TOTALDISCS=%totalcds%" -T "TOTALTRACKS=%numtracks%" -T "COMMENT=%comment%" %source% -o %dest%
TOC of the extracted CD
Track | Start | Length | Start sector | End sector
---------------------------------------------------------
1 | 0:00.00 | 6:13.22 | 0 | 27996
2 | 6:13.22 | 6:55.30 | 27997 | 59151
3 | 13:08.52 | 6:16.00 | 59152 | 87351
4 | 19:24.52 | 6:58.14 | 87352 | 118715
5 | 26:22.66 | 5:56.27 | 118716 | 145442
6 | 32:19.18 | 6:32.73 | 145443 | 174915
7 | 38:52.16 | 7:05.39 | 174916 | 206829
8 | 45:57.55 | 6:59.31 | 206830 | 238285
9 | 52:57.11 | 5:23.23 | 238286 | 262533
10 | 58:20.34 | 5:20.63 | 262534 | 286596
11 | 63:41.22 | 5:13.53 | 286597 | 310124
Track 1
Filename L:\[CLONE – C#cd9] Various - Recloned A Collection Of Remixes {CD FLAC}\01. Pauli vs. Alden Tyrell - Little (S.Y.D. Remix).wav
Pre-gap length 0:00:02.00
Peak level 92.8 %
Extraction speed 5.0 X
Track quality 100.0 %
Test CRC DC2EB66A
Copy CRC DC2EB66A
Accurately ripped (confidence 1) [143F5CFA] (AR v1)
Copy OK
Track 2
Filename L:\[CLONE – C#cd9] Various - Recloned A Collection Of Remixes {CD FLAC}\02. Putsch '79 - Doing It (Major Swellings Full Trommis Miks).wav
Pre-gap length 0:00:02.00
Peak level 98.8 %
Extraction speed 5.5 X
Track quality 100.0 %
Test CRC 474DFB3B
Copy CRC 474DFB3B
Accurately ripped (confidence 1) [151FD82A] (AR v1)
Copy OK
Track 3
Filename L:\[CLONE – C#cd9] Various - Recloned A Collection Of Remixes {CD FLAC}\03. Delgui - Highlights (Charles Webster Remix).wav
Pre-gap length 0:00:02.00
Peak level 98.8 %
Extraction speed 5.8 X
Track quality 100.0 %
Test CRC 52169610
Copy CRC 52169610
Accurately ripped (confidence 1) [52AAE650] (AR v1)
Copy OK
Track 4
Filename L:\[CLONE – C#cd9] Various - Recloned A Collection Of Remixes {CD FLAC}\04. Alden Tyrell - Disco Lunar Module (Lindstrøm & Prins Thomas Remix).wav
Pre-gap length 0:00:02.00
Peak level 99.5 %
Extraction speed 7.1 X
Track quality 100.0 %
Test CRC F712077C
Copy CRC F712077C
Accurately ripped (confidence 1) [204BCF2B] (AR v1)
Copy OK
Track 5
Filename L:\[CLONE – C#cd9] Various - Recloned A Collection Of Remixes {CD FLAC}\05. Alden Tyrell - La Voix (Elitechnique Remix).wav
Pre-gap length 0:00:02.00
Peak level 96.5 %
Extraction speed 7.5 X
Track quality 100.0 %
Test CRC 80A5FA71
Copy CRC 80A5FA71
Accurately ripped (confidence 1) [EB4454F4] (AR v1)
Copy OK
Track 6
Filename L:\[CLONE – C#cd9] Various - Recloned A Collection Of Remixes {CD FLAC}\06. Applegarden - Twentyfive 6 Four (Putsch '79 Remix).wav
Pre-gap length 0:00:02.00
Peak level 98.8 %
Extraction speed 7.2 X
Track quality 100.0 %
Test CRC 16FA14B8
Copy CRC 16FA14B8
Accurately ripped (confidence 1) [7813C9B0] (AR v1)
Copy OK
Track 7
Filename L:\[CLONE – C#cd9] Various - Recloned A Collection Of Remixes {CD FLAC}\07. Jupiter Black - We Like Moroder (Divider Remix).wav
Pre-gap length 0:00:02.00
Peak level 98.8 %
Extraction speed 8.5 X
Track quality 100.0 %
Test CRC 33F47B3C
Copy CRC 33F47B3C
Accurately ripped (confidence 1) [E5A628B2] (AR v1)
Copy OK
Track 8
Filename L:\[CLONE – C#cd9] Various - Recloned A Collection Of Remixes {CD FLAC}\08. Unit 4 - Bodydub (Tiefschwarz Remix).wav
Pre-gap length 0:00:02.00
Peak level 89.1 %
Extraction speed 9.0 X
Track quality 100.0 %
Test CRC 4A015562
Copy CRC 4A015562
Accurately ripped (confidence 1) [48CB552F] (AR v1)
Copy OK
Track 9
Filename L:\[CLONE – C#cd9] Various - Recloned A Collection Of Remixes {CD FLAC}\09. ADULT. - Hand To Phone (Carl Craig Remix).wav
Pre-gap length 0:00:02.00
Peak level 98.8 %
Extraction speed 1.1 X
Track quality 100.0 %
Test CRC 8B702E99
Copy CRC 8B702E99
Accurately ripped (confidence 1) [2CF83F2D] (AR v1)
Copy OK
Track 10
Filename L:\[CLONE – C#cd9] Various - Recloned A Collection Of Remixes {CD FLAC}\10. Marcus Mixx - Shake That Thing (Legowelt Remix).wav
Pre-gap length 0:00:02.00
Peak level 95.8 %
Extraction speed 2.7 X
Track quality 100.0 %
Test CRC 30292B1C
Copy CRC 30292B1C
Accurately ripped (confidence 1) [0D2322CE] (AR v1)
Copy OK
Track 11
Filename L:\[CLONE – C#cd9] Various - Recloned A Collection Of Remixes {CD FLAC}\11. Seymour Bits presents De Jeugd Van Tegenwoordig - Watskeburt! (Dexter's Remix).wav
Pre-gap length 0:00:02.00
Peak level 95.4 %
Extraction speed 8.2 X
Track quality 99.9 %
Test CRC DC947164
Copy CRC DC947164
Accurately ripped (confidence 1) [89467F66] (AR v1)
Copy OK
All tracks accurately ripped
No errors occurred
End of status report
---- CUETools DB Plugin V2.1.3
[CTDB TOCID: HPKLAU.JoHR5HfmshAbtFVl0vjU-] disk not present in database, Submit result: HPKLAU.JoHR5HfmshAbtFVl0vjU- has been uploaded
==== Log checksum 331DC0837F6F8F119D3BF899C06086074525E974081316D145338BDF7C41C7DB ====

Содержание индексной карты (.CUE)

REM GENRE Techno
REM DATE 2006
REM DISCID A110270B
REM COMMENT "ExactAudioCopy v1.0b3"
FILE "01. Pauli vs. Alden Tyrell - Little (S.Y.D. Remix).wav" WAVE
TRACK 01 AUDIO
INDEX 01 00:00:00
TRACK 02 AUDIO
INDEX 00 06:11:22
FILE "02. Putsch '79 - Doing It (Major Swellings Full Trommis Miks).wav" WAVE
INDEX 01 00:00:00
TRACK 03 AUDIO
INDEX 00 06:53:30
FILE "03. Delgui - Highlights (Charles Webster Remix).wav" WAVE
INDEX 01 00:00:00
TRACK 04 AUDIO
INDEX 00 06:14:00
FILE "04. Alden Tyrell - Disco Lunar Module (Lindstrшm & Prins Thomas Remix).wav" WAVE
INDEX 01 00:00:00
TRACK 05 AUDIO
INDEX 00 06:56:14
FILE "05. Alden Tyrell - La Voix (Elitechnique Remix).wav" WAVE
INDEX 01 00:00:00
TRACK 06 AUDIO
INDEX 00 05:54:27
FILE "06. Applegarden - Twentyfive 6 Four (Putsch '79 Remix).wav" WAVE
INDEX 01 00:00:00
TRACK 07 AUDIO
INDEX 00 06:30:73
FILE "07. Jupiter Black - We Like Moroder (Divider Remix).wav" WAVE
INDEX 01 00:00:00
TRACK 08 AUDIO
INDEX 00 07:03:39
FILE "08. Unit 4 - Bodydub (Tiefschwarz Remix).wav" WAVE
INDEX 01 00:00:00
TRACK 09 AUDIO
INDEX 00 06:57:31
FILE "09. ADULT. - Hand To Phone (Carl Craig Remix).wav" WAVE
INDEX 01 00:00:00
TRACK 10 AUDIO
INDEX 00 05:21:23
FILE "10. Marcus Mixx - Shake That Thing (Legowelt Remix).wav" WAVE
INDEX 01 00:00:00
TRACK 11 AUDIO
INDEX 00 05:18:63
FILE "11. Seymour Bits presents De Jeugd Van Tegenwoordig - Watskeburt! (Dexter's Remix).wav" WAVE
INDEX 01 00:00:00

Вы не можете начинать темы
Вы не можете отвечать на сообщения
Вы не можете редактировать свои сообщения
Вы не можете удалять свои сообщения
Вы не можете голосовать в опросах
Вы не можете прикреплять файлы к сообщениям
Вы можете скачивать файлы
!ВНИМАНИЕ!

Сайт не предоставляет электронные версии произведений, а занимается лишь коллекционированием и каталогизацией ссылок, присылаемых и публикуемых на форуме нашими читателями. Если вы являетесь правообладателем какого-либо представленного материала и не желаете, чтобы ссылка на него находилась в нашем каталоге, свяжитесь с нами, и мы незамедлительно удалим ее. Файлы для обмена на трекере предоставлены пользователями сайта, и администрация не несет ответственности за их содержание. Просьба не заливать файлы, защищенные авторскими правами, а также файлы нелегального содержания!

Искали программы, игры, дополнения, музыка mp3, аниме, аудио книги, журналы? Добро пожаловать на свободный торрент трекер Torrents, у нас можно скачать бесплатно, без смс и регистрации и прочих ограничений лучшие, отборные сборки программ, игр. Скачать торрентом не составит труда даже не опытному пользователю. Раздачи ежедневно обновляются, только лучшие и качественные раздачи, подробные описания и скриншоты. Огромная коллекция программ для работы со звуком, графикой, дизайном, а так же множество плагинов и инструментов к ним с подробной инструкцией и рекомендациями. Прошивки для навигаторов, карты. Разнообразные игры, для Windows, Linux. В коллекцие есть и старые игры любых жанров, Rpg, Action, Shooter, strategy Множество дополнений, модификаций, сценариев для популярных игр в жанре экш, рпг, гонки, стратегии, логические игры. Множество аддонов и сценариев для Microsoft Flight Simulator Большая коллекция книг, учебников. Если нет возможности купить печатное издание - смело скачивайте цифровую версию книги или, быть может, журнала. Не любите читать - можно загрузить бесплатно аудикнигу. Для веб дизайнеров и программистов так же найдется множество специализированного софта, таких как: редакторы с подсветкой, среды программирования, компоненты, системы управления базами данных, разнообразные скрипты и шаблоны. Не так давно у нас появился материал для автолюбителей и владельцев мото - оригинальные и неоригинальные каталоги запчастей, книги и журналы по ремонту и обслуживанию, видеоуроки, статьи по чип тюнингу, прошивкам. Процедура получения контента элементарная, достаточно просто скачать торрент файл и добавить его в загрузку в вашем торрент клиенте. Если у вас нет специального торрент клиента, вы можете его скачать у нас.