(Electro) VA - Classic Electro Mastercuts Volume 1 - 1994, FLAC (image+.cue), lossless 

Цитировать
Various - Classic Electro Mastercuts Volume 1
Жанр: Electro
Страна-производитель диска: UK
Год издания диска: 1994
Издатель (лейбл): Mastercuts
Номер по каталогу: CUTSCD 19
Страна: UK-US
Аудиокодек: FLAC (*.flac)
Тип рипа: image+.cue
Битрейт аудио: lossless
Продолжительность: 01:18:54
Источник (релизер): Lossless-Galaxy (vicor 61)
Наличие сканов в содержимом раздачи: да

Треклист:

01. Rockers Revenge – Walking On Sunshine (Original 12" Mix) 9:30
02. Peech Boys – Don't Make Me Wait (Original 12" Dub Mix) 5:52
03. Grandmaster Flash & Melle Mel – White Lines (Don't Do It) (Original 12" Mix) 7:35
04. Man Parrish – Hip Hop, Be Bop (Don't Stop) (Original 12" Mix) 6:02
05. Herbie Hancock – Rockit (Original 12" Mix) 5:22
06. Tyrone Brunson – The Smurf (Original 12" Mix) 6:05
07. C.O.D. – In The Bottle (Original 12" Mix) 5:59
08. Newtrament – London Bridge Is Falling Down (Original 12" Dub Mix) 6:07
09. Hashim – Al-Naafiysh (The Soul) (Original 12" Mix) 7:44
10. Whodini – Magic's Wand (Original 12" Mix) 5:38
11. Time Zone – The Wildstyle (Original 12" Dub Mix) 6:27
12. Grandmaster Flash & The Furious Five – The Adventures Of Grandmaster Flash On The Wheels Of Steel (Original 12" Mix) 7:03

Лог EAC

Exact Audio Copy V0.99 prebeta 5 from 4. May 2009
EAC extraction logfile from 17. October 2009, 15:06
Various / Classic Electro Mastercuts - Volume 1
Used drive : HP DVD Writer 1040r Adapter: 1 ID: 0
Read mode : Secure
Utilize accurate stream : Yes
Defeat audio cache : Yes
Make use of C2 pointers : No
Read offset correction : 6
Overread into Lead-In and Lead-Out : No
Fill up missing offset samples with silence : Yes
Delete leading and trailing silent blocks : No
Null samples used in CRC calculations : Yes
Used interface : Native Win32 interface for Win NT & 2000
Used output format : User Defined Encoder
Selected bitrate : 1024 kBit/s
Quality : High
Add ID3 tag : No
Command line compressor : C:\Program Files\Exact Audio Copy\FLAC\FLAC.EXE
Additional command line options : -5 -V -T "ARTIST=%a" -T "TITLE=%t" -T "ALBUM=%g" -T "DATE=%y" -T "TRACKNUMBER=%n" -T "GENRE=%m" -T "COMMENT=EAC Flac 1.1.2 -5" %s
TOC of the extracted CD
Track | Start | Length | Start sector | End sector
---------------------------------------------------------
1 | 0:00.32 | 9:31.50 | 32 | 42906
2 | 9:32.07 | 5:40.55 | 42907 | 68461
3 | 15:12.62 | 7:33.08 | 68462 | 102444
4 | 22:45.70 | 5:32.17 | 102445 | 127361
5 | 28:18.12 | 5:23.43 | 127362 | 151629
6 | 33:41.55 | 6:06.52 | 151630 | 179131
7 | 39:48.32 | 6:03.08 | 179132 | 206364
8 | 45:51.40 | 6:08.47 | 206365 | 234011
9 | 52:00.12 | 7:45.08 | 234012 | 268894
10 | 59:45.20 | 5:38.25 | 268895 | 294269
11 | 65:23.45 | 6:27.32 | 294270 | 323326
12 | 71:51.02 | 7:03.35 | 323327 | 355086
Range status and errors
Selected range
Filename C:\Users\Mike3\Desktop\Mastercuts Classic Electro Volume 1 (Flac)\Various - Classic Electro Mastercuts - Volume 1.wav
Peak level 97.7 %
Range quality 100.0 %
Copy CRC E5630DFB
Copy OK
No errors occurred
AccurateRip summary
Track 1 accurately ripped (confidence 7) [0DA98C21]
Track 2 accurately ripped (confidence 7) [F30D7E5E]
Track 3 accurately ripped (confidence 7) [495CBB9F]
Track 4 accurately ripped (confidence 7) [9CC5D22A]
Track 5 accurately ripped (confidence 7) [1E5F2BDB]
Track 6 accurately ripped (confidence 7) [16189D00]
Track 7 accurately ripped (confidence 7) [C89B9E4D]
Track 8 accurately ripped (confidence 7) [8033610E]
Track 9 accurately ripped (confidence 6) [F17D0101]
Track 10 accurately ripped (confidence 7) [78C7176C]
Track 11 accurately ripped (confidence 7) [BC7EEE12]
Track 12 accurately ripped (confidence 7) [CA654765]
All tracks accurately ripped
End of status report

Спектр:

Вы не можете начинать темы
Вы не можете отвечать на сообщения
Вы не можете редактировать свои сообщения
Вы не можете удалять свои сообщения
Вы не можете голосовать в опросах
Вы не можете прикреплять файлы к сообщениям
Вы можете скачивать файлы
!ВНИМАНИЕ!

Сайт не предоставляет электронные версии произведений, а занимается лишь коллекционированием и каталогизацией ссылок, присылаемых и публикуемых на форуме нашими читателями. Если вы являетесь правообладателем какого-либо представленного материала и не желаете, чтобы ссылка на него находилась в нашем каталоге, свяжитесь с нами, и мы незамедлительно удалим ее. Файлы для обмена на трекере предоставлены пользователями сайта, и администрация не несет ответственности за их содержание. Просьба не заливать файлы, защищенные авторскими правами, а также файлы нелегального содержания!

Искали программы, игры, дополнения, музыка mp3, аниме, аудио книги, журналы? Добро пожаловать на свободный торрент трекер Torrents, у нас можно скачать бесплатно, без смс и регистрации и прочих ограничений лучшие, отборные сборки программ, игр. Скачать торрентом не составит труда даже не опытному пользователю. Раздачи ежедневно обновляются, только лучшие и качественные раздачи, подробные описания и скриншоты. Огромная коллекция программ для работы со звуком, графикой, дизайном, а так же множество плагинов и инструментов к ним с подробной инструкцией и рекомендациями. Прошивки для навигаторов, карты. Разнообразные игры, для Windows, Linux. В коллекцие есть и старые игры любых жанров, Rpg, Action, Shooter, strategy Множество дополнений, модификаций, сценариев для популярных игр в жанре экш, рпг, гонки, стратегии, логические игры. Множество аддонов и сценариев для Microsoft Flight Simulator Большая коллекция книг, учебников. Если нет возможности купить печатное издание - смело скачивайте цифровую версию книги или, быть может, журнала. Не любите читать - можно загрузить бесплатно аудикнигу. Для веб дизайнеров и программистов так же найдется множество специализированного софта, таких как: редакторы с подсветкой, среды программирования, компоненты, системы управления базами данных, разнообразные скрипты и шаблоны. Не так давно у нас появился материал для автолюбителей и владельцев мото - оригинальные и неоригинальные каталоги запчастей, книги и журналы по ремонту и обслуживанию, видеоуроки, статьи по чип тюнингу, прошивкам. Процедура получения контента элементарная, достаточно просто скачать торрент файл и добавить его в загрузку в вашем торрент клиенте. Если у вас нет специального торрент клиента, вы можете его скачать у нас.