(Electro, Techno, Breaks) Radioactive Man - Growl (COTOCD001) 2008, FLAC (tracks+.cue), lossless 

Цитировать
Radioactive Man - Growl
Жанр: Electro, Techno, Breaks
Страна-производитель диска: UK
Год издания: 2008
Издатель (лейбл): Control Tower
Номер по каталогу: COTOCD001
Аудиокодек: FLAC (*.flac)
Тип рипа: tracks+.cue
Битрейт аудио: lossless
Продолжительность: 58:59
Источник (релизер): what
Наличие сканов в содержимом раздачи: нет-Треклист:
01 Basement Business 4:09
02 Pieces Of Eight 6:26
03 Nothing At All 4:29
04 Kristiina 6:11
05 Double Dealings 5:57
06 5 Armed Skeleton 6:06
07 Up In The Air 1:46
08 Dalston To Detroit 6:25
09 Growl 5:03
10 State Of That 6:15
11 Lungfull Of Bass 6:12

Лог создания рипа

Exact Audio Copy V0.99 prebeta 5 from 4. May 2009
EAC extraction logfile from 5. July 2009, 12:02
Radioactiveman / Growl
Used drive : PLEXTOR CD-R PREMIUM Adapter: 0 ID: 0
Read mode : Secure
Utilize accurate stream : Yes
Defeat audio cache : Yes
Make use of C2 pointers : No
Read offset correction : 30
Overread into Lead-In and Lead-Out : Yes
Fill up missing offset samples with silence : Yes
Delete leading and trailing silent blocks : No
Null samples used in CRC calculations : Yes
Used interface : Native Win32 interface for Win NT & 2000
Gap handling : Appended to previous track
Used output format : User Defined Encoder
Selected bitrate : 320 kBit/s
Quality : High
Add ID3 tag : No
Command line compressor : C:\Program Files\Exact Audio Copy\Flac\flac.exe
Additional command line options : -V -8 -T "artist=%a" -T "title=%t" -T "album=%g" -T "date=%y" -T "tracknumber=%n" -T "genre=%m" %s
TOC of the extracted CD
Track | Start | Length | Start sector | End sector
---------------------------------------------------------
1 | 0:00.00 | 4:08.73 | 0 | 18672
2 | 4:08.73 | 6:25.74 | 18673 | 47621
3 | 10:34.72 | 4:29.02 | 47622 | 67798
4 | 15:03.74 | 6:11.18 | 67799 | 95641
5 | 21:15.17 | 5:56.69 | 95642 | 122410
6 | 27:12.11 | 6:06.17 | 122411 | 149877
7 | 33:18.28 | 1:46.08 | 149878 | 157835
8 | 35:04.36 | 6:25.36 | 157836 | 186746
9 | 41:29.72 | 5:02.61 | 186747 | 209457
10 | 46:32.58 | 6:15.05 | 209458 | 237587
11 | 52:47.63 | 6:11.73 | 237588 | 265485
Track 1
Filename C:\EACRips\01 Basement Business.wav
Pre-gap length 0:00:02.00
Peak level 100.0 %
Track quality 100.0 %
Test CRC EBA27E7B
Copy CRC EBA27E7B
Accurately ripped (confidence 4) [F52F2C87]
Copy OK
Track 2
Filename C:\EACRips\02 Pieces Of Eight.wav
Pre-gap length 0:00:00.05
Peak level 99.5 %
Track quality 100.0 %
Test CRC 40847B89
Copy CRC 40847B89
Accurately ripped (confidence 4) [1968AE35]
Copy OK
Track 3
Filename C:\EACRips\03 Nothing At All.wav
Pre-gap length 0:00:00.59
Peak level 99.1 %
Track quality 100.0 %
Test CRC 60977B11
Copy CRC 60977B11
Accurately ripped (confidence 4) [11669E35]
Copy OK
Track 4
Filename C:\EACRips\04 Kristiina.wav
Pre-gap length 0:00:00.07
Peak level 100.0 %
Track quality 99.9 %
Test CRC 68D6C382
Copy CRC 68D6C382
Accurately ripped (confidence 4) [AF264BE0]
Copy OK
Track 5
Filename C:\EACRips\05 Double Dealings.wav
Pre-gap length 0:00:00.59
Peak level 100.0 %
Track quality 100.0 %
Test CRC 1841888D
Copy CRC 1841888D
Accurately ripped (confidence 4) [4FD70ABE]
Copy OK
Track 6
Filename C:\EACRips\06 5 Armed Skeleton.wav
Pre-gap length 0:00:01.60
Peak level 100.0 %
Track quality 100.0 %
Test CRC 1CFFABC5
Copy CRC 1CFFABC5
Accurately ripped (confidence 4) [01B9D890]
Copy OK
Track 7
Filename C:\EACRips\07 Up In The Air.wav
Pre-gap length 0:00:01.18
Peak level 99.6 %
Track quality 100.0 %
Test CRC 67CBE5DF
Copy CRC 67CBE5DF
Accurately ripped (confidence 4) [FF4A533D]
Copy OK
Track 8
Filename C:\EACRips\08 Dalston To Detroit.wav
Peak level 100.0 %
Track quality 100.0 %
Test CRC C23FA681
Copy CRC C23FA681
Accurately ripped (confidence 4) [A1E528AC]
Copy OK
Track 9
Filename C:\EACRips\09 Growl.wav
Peak level 100.0 %
Track quality 99.9 %
Test CRC A2C6E4E4
Copy CRC A2C6E4E4
Accurately ripped (confidence 4) [4693E052]
Copy OK
Track 10
Filename C:\EACRips\10 State Of That.wav
Pre-gap length 0:00:01.23
Peak level 99.7 %
Track quality 100.0 %
Test CRC 5B10F7E7
Copy CRC 5B10F7E7
Accurately ripped (confidence 4) [FD5C185F]
Copy OK
Track 11
Filename C:\EACRips\11 Lungfull Of Bass.wav
Pre-gap length 0:00:00.04
Peak level 100.0 %
Track quality 100.0 %
Test CRC D9272980
Copy CRC D9272980
Accurately ripped (confidence 4) [87070CD1]
Copy OK
All tracks accurately ripped
No errors occurred
End of status report

Содержание индексной карты (.CUE)

REM GENRE Electronic
REM DATE 2008
REM DISCID 890DD30B
REM COMMENT "ExactAudioCopy v0.99pb5"
PERFORMER "Radioactiveman"
TITLE "Growl"
FILE "01 Radioactive Man - Basement Business.wav" WAVE
TRACK 01 AUDIO
TITLE "Basement Business"
PERFORMER "Radioactiveman"
INDEX 01 00:00:00
TRACK 02 AUDIO
TITLE "Pieces Of Eight"
PERFORMER "Radioactiveman"
INDEX 00 04:08:68
FILE "02 Radioactive Man - Pieces Of Eight.wav" WAVE
INDEX 01 00:00:00
TRACK 03 AUDIO
TITLE "Nothing At All"
PERFORMER "Radioactiveman"
INDEX 00 06:25:15
FILE "03 Radioactive Man - Nothing At All.wav" WAVE
INDEX 01 00:00:00
TRACK 04 AUDIO
TITLE "Kristiina"
PERFORMER "Radioactiveman"
INDEX 00 04:28:70
FILE "04 Radioactive Man - Kristiina.wav" WAVE
INDEX 01 00:00:00
TRACK 05 AUDIO
TITLE "Double Dealings"
PERFORMER "Radioactiveman"
INDEX 00 06:10:34
FILE "05 Radioactive Man - Double Dealings.wav" WAVE
INDEX 01 00:00:00
TRACK 06 AUDIO
TITLE "5 Armed Skeleton"
PERFORMER "Radioactiveman"
INDEX 00 05:55:09
FILE "06 Radioactive Man - 5 Armed Skeleton.wav" WAVE
INDEX 01 00:00:00
TRACK 07 AUDIO
TITLE "Up In The Air"
PERFORMER "Radioactiveman"
INDEX 00 06:04:74
FILE "07 Radioactive Man - Up In The Air.wav" WAVE
INDEX 01 00:00:00
FILE "08 Radioactive Man - Dalston To Detroit.wav" WAVE
TRACK 08 AUDIO
TITLE "Dalston To Detroit"
PERFORMER "Radioactiveman"
INDEX 01 00:00:00
FILE "09 Radioactive Man - Growl.wav" WAVE
TRACK 09 AUDIO
TITLE "Growl"
PERFORMER "Radioactiveman"
INDEX 01 00:00:00
TRACK 10 AUDIO
TITLE "State Of That"
PERFORMER "Radioactiveman"
INDEX 00 05:01:38
FILE "10 Radioactive Man - State Of That.wav" WAVE
INDEX 01 00:00:00
TRACK 11 AUDIO
TITLE "Lungfull Of Bass"
PERFORMER "Radioactiveman"
INDEX 00 06:15:01
FILE "11 Radioactive Man - Lungfull Of Bass.wav" WAVE
INDEX 01 00:00:00
Вы не можете начинать темы
Вы не можете отвечать на сообщения
Вы не можете редактировать свои сообщения
Вы не можете удалять свои сообщения
Вы не можете голосовать в опросах
Вы не можете прикреплять файлы к сообщениям
Вы можете скачивать файлы
!ВНИМАНИЕ!

Сайт не предоставляет электронные версии произведений, а занимается лишь коллекционированием и каталогизацией ссылок, присылаемых и публикуемых на форуме нашими читателями. Если вы являетесь правообладателем какого-либо представленного материала и не желаете, чтобы ссылка на него находилась в нашем каталоге, свяжитесь с нами, и мы незамедлительно удалим ее. Файлы для обмена на трекере предоставлены пользователями сайта, и администрация не несет ответственности за их содержание. Просьба не заливать файлы, защищенные авторскими правами, а также файлы нелегального содержания!

Искали программы, игры, дополнения, музыка mp3, аниме, аудио книги, журналы? Добро пожаловать на свободный торрент трекер Torrents, у нас можно скачать бесплатно, без смс и регистрации и прочих ограничений лучшие, отборные сборки программ, игр. Скачать торрентом не составит труда даже не опытному пользователю. Раздачи ежедневно обновляются, только лучшие и качественные раздачи, подробные описания и скриншоты. Огромная коллекция программ для работы со звуком, графикой, дизайном, а так же множество плагинов и инструментов к ним с подробной инструкцией и рекомендациями. Прошивки для навигаторов, карты. Разнообразные игры, для Windows, Linux. В коллекцие есть и старые игры любых жанров, Rpg, Action, Shooter, strategy Множество дополнений, модификаций, сценариев для популярных игр в жанре экш, рпг, гонки, стратегии, логические игры. Множество аддонов и сценариев для Microsoft Flight Simulator Большая коллекция книг, учебников. Если нет возможности купить печатное издание - смело скачивайте цифровую версию книги или, быть может, журнала. Не любите читать - можно загрузить бесплатно аудикнигу. Для веб дизайнеров и программистов так же найдется множество специализированного софта, таких как: редакторы с подсветкой, среды программирования, компоненты, системы управления базами данных, разнообразные скрипты и шаблоны. Не так давно у нас появился материал для автолюбителей и владельцев мото - оригинальные и неоригинальные каталоги запчастей, книги и журналы по ремонту и обслуживанию, видеоуроки, статьи по чип тюнингу, прошивкам. Процедура получения контента элементарная, достаточно просто скачать торрент файл и добавить его в загрузку в вашем торрент клиенте. Если у вас нет специального торрент клиента, вы можете его скачать у нас.