(Techno, Electro) VA - Beyond The Sun 2 - 1996, FLAC (tracks+.cue), lossless 

Цитировать
Various Artists - Beyond The Sun 2
- -Жанр: Techno, Electro
Страна-производитель диска: Netherlands
Год издания: 1996
Издатель (лейбл): Dance Arena Productions (DAP)
Номер по каталогу: DAPCD 002
Аудиокодек: FLAC (*.flac)
Тип рипа: tracks+.cue
Битрейт аудио: lossless
Продолжительность: 01:16:02
Источник (релизер): what.cd
Наличие сканов в содержимом раздачи: нет
Треклист:
01. Shiver – Subsonic Soundscape [7:28]
02. Steve Stoll – The Blunted Boy Wonder [7:27]
03. Insync vs. Mysteron – Dissolve [8:55]
04. Wavescape – Armed Intruders [7:23]
05. Alien FM – Art Of Illusion [6:11]
06. Shiver – Ursa Major 7 [5:28]
07. Sterac – X-Tracks [7:10]
08. The Happy Clappies – O.D.M. [5:05]
09. DMX Krew – Got You On My Mind [4:46]
10. Rising Sun – Haze [5:04]
11. Truph – Chisel [11:02]

Лог создания рипа

EAC extraction logfile from 18. December 2009, 13:10 for CD
Various Artists / Beyond the Sun 2
Used drive : TSSTcorpCDDVDW SH-S223L Adapter: 1 ID: 0
Read mode : Secure with NO C2, accurate stream, disable cache
Read offset correction : 6
Overread into Lead-In and Lead-Out : No
Used output format : C:\Program Files (x86)\FLAC\flac.exe (User Defined Encoder)
320 kBit/s
Additional command line options : -8 -A tukey(0.25) -A gauss(0.1875) -b 4096 -V -T "artist=%a" -T "title=%t" -T "album=%g" -T "date=%y" -T "tracknumber=%n" -T "genre=%m" %s
Other options :
Fill up missing offset samples with silence : Yes
Delete leading and trailing silent blocks : No
Native Win32 interface for Win NT & 2000
Track 1
Filename C:\Users\Michael\Documents\Beyond the Sun 2\01 - Shiver - Subsonic Soundscape.wav
Pre-gap length 0:00:02.00
Peak level 97.5 %
Track quality 100.0 %
Test CRC 61B21940
Copy CRC 61B21940
Copy OK
Track 2
Filename C:\Users\Michael\Documents\Beyond the Sun 2\02 - Steve Stoll - The Blunted Boy Wonder.wav
Pre-gap length 0:00:02.82
Peak level 95.7 %
Track quality 100.0 %
Test CRC 221D9610
Copy CRC 221D9610
Copy OK
Track 3
Filename C:\Users\Michael\Documents\Beyond the Sun 2\03 - Insync vs Mysteron - Dissolve.wav
Pre-gap length 0:00:02.82
Peak level 90.6 %
Track quality 100.0 %
Test CRC 9F8FBF7B
Copy CRC 9F8FBF7B
Copy OK
Track 4
Filename C:\Users\Michael\Documents\Beyond the Sun 2\04 - Wavescape - Armed Intruders.wav
Pre-gap length 0:00:02.82
Peak level 100.0 %
Track quality 100.0 %
Test CRC 93DAD676
Copy CRC 93DAD676
Copy OK
Track 5
Filename C:\Users\Michael\Documents\Beyond the Sun 2\05 - Alien FM - Art of Illusion.wav
Pre-gap length 0:00:02.82
Peak level 94.9 %
Track quality 100.0 %
Test CRC CF08065A
Copy CRC CF08065A
Copy OK
Track 6
Filename C:\Users\Michael\Documents\Beyond the Sun 2\06 - Shiver - Ursa Major 7.wav
Pre-gap length 0:00:02.82
Peak level 99.0 %
Track quality 100.0 %
Test CRC F029BE9B
Copy CRC F029BE9B
Copy OK
Track 7
Filename C:\Users\Michael\Documents\Beyond the Sun 2\07 - Sterac - X-Tracks.wav
Pre-gap length 0:00:02.84
Peak level 100.0 %
Track quality 100.0 %
Test CRC CD6186BE
Copy CRC CD6186BE
Copy OK
Track 8
Filename C:\Users\Michael\Documents\Beyond the Sun 2\08 - The Happy Clappies - O.D.M..wav
Pre-gap length 0:00:02.84
Peak level 97.9 %
Track quality 100.0 %
Test CRC 2382D57D
Copy CRC 2382D57D
Copy OK
Track 9
Filename C:\Users\Michael\Documents\Beyond the Sun 2\09 - DMX Crew - Got You On My Mind.wav
Pre-gap length 0:00:02.84
Peak level 93.9 %
Track quality 100.0 %
Test CRC 36F916A2
Copy CRC 36F916A2
Copy OK
Track 10
Filename C:\Users\Michael\Documents\Beyond the Sun 2\10 - Rising Sun - Haze.wav
Pre-gap length 0:00:02.84
Peak level 99.6 %
Track quality 99.9 %
Test CRC 1DA98CCA
Copy CRC 1DA98CCA
Copy OK
Track 11
Filename C:\Users\Michael\Documents\Beyond the Sun 2\11 - Truph - Chisel.wav
Pre-gap length 0:00:02.84
Peak level 100.0 %
Track quality 99.9 %
Test CRC D2A4B91A
Copy CRC D2A4B91A
Copy OK
No errors occured
End of status report

Содержание индексной карты (.CUE)

REM DISCID A011D20B
REM COMMENT "ExactAudioCopy v0.95b4"
PERFORMER "Various Artists"
TITLE "Beyond the Sun 2"
FILE "01 - Shiver - Subsonic Soundscape.wav" WAVE
TRACK 01 AUDIO
TITLE "Subsonic Soundscape"
PERFORMER "Shiver"
INDEX 01 00:00:00
TRACK 02 AUDIO
TITLE "The Blunted Boy Wonder"
PERFORMER "Steve Stoll"
INDEX 00 07:25:65
FILE "02 - Steve Stoll - The Blunted Boy Wonder.wav" WAVE
INDEX 01 00:00:00
TRACK 03 AUDIO
TITLE "Dissolve"
PERFORMER "Insync vs Mysteron"
INDEX 00 07:24:43
FILE "03 - Insync vs Mysteron - Dissolve.wav" WAVE
INDEX 01 00:00:00
TRACK 04 AUDIO
TITLE "Armed Intruders"
PERFORMER "Wavescape"
INDEX 00 08:52:68
FILE "04 - Wavescape - Armed Intruders.wav" WAVE
INDEX 01 00:00:00
TRACK 05 AUDIO
TITLE "Art of Illusion"
PERFORMER "Alien FM"
INDEX 00 07:20:13
FILE "05 - Alien FM - Art of Illusion.wav" WAVE
INDEX 01 00:00:00
TRACK 06 AUDIO
TITLE "Ursa Major 7"
PERFORMER "Shiver"
INDEX 00 06:08:13
FILE "06 - Shiver - Ursa Major 7.wav" WAVE
INDEX 01 00:00:00
TRACK 07 AUDIO
TITLE "X-Tracks"
PERFORMER "Sterac"
INDEX 00 05:25:20
FILE "07 - Sterac - X-Tracks.wav" WAVE
INDEX 01 00:00:00
TRACK 08 AUDIO
TITLE "O.D.M."
PERFORMER "The Happy Clappies"
INDEX 00 07:07:47
FILE "08 - The Happy Clappies - O.D.M..wav" WAVE
INDEX 01 00:00:00
TRACK 09 AUDIO
TITLE "Got You On My Mind"
PERFORMER "DMX Crew"
INDEX 00 05:02:57
FILE "09 - DMX Crew - Got You On My Mind.wav" WAVE
INDEX 01 00:00:00
TRACK 10 AUDIO
TITLE "Haze"
PERFORMER "Rising Sun"
INDEX 00 04:43:62
FILE "10 - Rising Sun - Haze.wav" WAVE
INDEX 01 00:00:00
TRACK 11 AUDIO
TITLE "Chisel"
PERFORMER "Truph"
INDEX 00 05:01:22
FILE "11 - Truph - Chisel.wav" WAVE
INDEX 01 00:00:00
Вы не можете начинать темы
Вы не можете отвечать на сообщения
Вы не можете редактировать свои сообщения
Вы не можете удалять свои сообщения
Вы не можете голосовать в опросах
Вы не можете прикреплять файлы к сообщениям
Вы можете скачивать файлы
!ВНИМАНИЕ!

Сайт не предоставляет электронные версии произведений, а занимается лишь коллекционированием и каталогизацией ссылок, присылаемых и публикуемых на форуме нашими читателями. Если вы являетесь правообладателем какого-либо представленного материала и не желаете, чтобы ссылка на него находилась в нашем каталоге, свяжитесь с нами, и мы незамедлительно удалим ее. Файлы для обмена на трекере предоставлены пользователями сайта, и администрация не несет ответственности за их содержание. Просьба не заливать файлы, защищенные авторскими правами, а также файлы нелегального содержания!

Искали программы, игры, дополнения, музыка mp3, аниме, аудио книги, журналы? Добро пожаловать на свободный торрент трекер Torrents, у нас можно скачать бесплатно, без смс и регистрации и прочих ограничений лучшие, отборные сборки программ, игр. Скачать торрентом не составит труда даже не опытному пользователю. Раздачи ежедневно обновляются, только лучшие и качественные раздачи, подробные описания и скриншоты. Огромная коллекция программ для работы со звуком, графикой, дизайном, а так же множество плагинов и инструментов к ним с подробной инструкцией и рекомендациями. Прошивки для навигаторов, карты. Разнообразные игры, для Windows, Linux. В коллекцие есть и старые игры любых жанров, Rpg, Action, Shooter, strategy Множество дополнений, модификаций, сценариев для популярных игр в жанре экш, рпг, гонки, стратегии, логические игры. Множество аддонов и сценариев для Microsoft Flight Simulator Большая коллекция книг, учебников. Если нет возможности купить печатное издание - смело скачивайте цифровую версию книги или, быть может, журнала. Не любите читать - можно загрузить бесплатно аудикнигу. Для веб дизайнеров и программистов так же найдется множество специализированного софта, таких как: редакторы с подсветкой, среды программирования, компоненты, системы управления базами данных, разнообразные скрипты и шаблоны. Не так давно у нас появился материал для автолюбителей и владельцев мото - оригинальные и неоригинальные каталоги запчастей, книги и журналы по ремонту и обслуживанию, видеоуроки, статьи по чип тюнингу, прошивкам. Процедура получения контента элементарная, достаточно просто скачать торрент файл и добавить его в загрузку в вашем торрент клиенте. Если у вас нет специального торрент клиента, вы можете его скачать у нас.