(Breakbeat, Electro, Happy Hardcore) Music Instructor: 3 singles - 1995,2000 - FLAC (tracks+.cue) lossless 

Цитировать
Music Instructor
Жанр: Breakbeat, Electro, Happy Hardcore
Год издания диска: 1995,2000
Аудио кодек: FLAC (*.flac)
Тип рипа: tracks+.cue
Битрейт аудио: lossless
Продолжительность: 55:55
Источник (релизер): собственные рипы
Наличие сканов в содержимом раздачи: да
31 05 2016 в раздачу добавлены"гимны", и с сохранением имён папок добавлены сканы для соседней коллекции.
Достадочно просто эту раздачу скачать в папку с той.

Music Instructor - Hymn [7243 8 82241 2 3] [1995]


Продолжительность: 19:59
01. Music Instructor - Hymn (Single Edit) [03:57]
02. Music Instructor - Hymn (Go Down Mix) [05:21]
03. Music Instructor - Hymn (Dance Mix) [05:27]
04. Music Instructor - Music Instructor (Instrumental Dance Mix) [05:16]

log and sheet

Log

Exact Audio Copy V1.1 from 23. June 2015
EAC extraction logfile from 28. May 2016, 21:45
Music Instructor / Hymn
Used drive : ASUS SDRW-08D2S-U Adapter: 1 ID: 0
Read mode : Secure
Utilize accurate stream : Yes
Defeat audio cache : Yes
Make use of C2 pointers : No
Read offset correction : 6
Overread into Lead-In and Lead-Out : No
Fill up missing offset samples with silence : Yes
Delete leading and trailing silent blocks : No
Null samples used in CRC calculations : Yes
Used interface : Native Win32 interface for Win NT & 2000
Gap handling : Appended to previous track
Used output format : User Defined Encoder
Selected bitrate : 32 kBit/s
Quality : High
Add ID3 tag : No
Command line compressor : C:\Exact Audio Copy [installed]\Flac\flac.exe
Additional command line options : -8 -V -T "ARTIST=%artist%" -T "TITLE=%title%" -T "ALBUM=%albumtitle%" -T "DATE=%year%" -T "TRACKNUMBER=%tracknr%" -T "GENRE=%genre%" -T "COMMENT=ripped by Andy aka yetiisyou" %source%
TOC of the extracted CD
Track | Start | Length | Start sector | End sector
---------------------------------------------------------
1 | 0:00.00 | 3:56.25 | 0 | 17724
2 | 3:56.25 | 5:20.17 | 17725 | 41741
3 | 9:16.42 | 5:26.35 | 41742 | 66226
4 | 14:43.02 | 5:15.43 | 66227 | 89894
Track 1
Filename E:\!Ripped by Andy aka yetiisyou\Music Instructor - Hymn [7243 8 82241 2 3] [1995]\01. Hymn (Single Edit).wav
Pre-gap length 0:00:02.00
Peak level 97.7 %
Extraction speed 3.0 X
Track quality 100.0 %
Test CRC 1BBF0324
Copy CRC 1BBF0324
Accurately ripped (confidence 30) [767A16DB] (AR v2)
Copy OK
Track 2
Filename E:\!Ripped by Andy aka yetiisyou\Music Instructor - Hymn [7243 8 82241 2 3] [1995]\02. Hymn (Go Down Mix).wav
Pre-gap length 0:00:00.48
Peak level 97.7 %
Extraction speed 3.5 X
Track quality 100.0 %
Test CRC DD243D36
Copy CRC DD243D36
Accurately ripped (confidence 29) [A6FDEB29] (AR v2)
Copy OK
Track 3
Filename E:\!Ripped by Andy aka yetiisyou\Music Instructor - Hymn [7243 8 82241 2 3] [1995]\03. Hymn (Dance Mix).wav
Pre-gap length 0:00:00.55
Peak level 97.7 %
Extraction speed 3.9 X
Track quality 100.0 %
Test CRC 1603A454
Copy CRC 1603A454
Accurately ripped (confidence 27) [A0D05BA0] (AR v2)
Copy OK
Track 4
Filename E:\!Ripped by Andy aka yetiisyou\Music Instructor - Hymn [7243 8 82241 2 3] [1995]\04. Music Instructor (Instrumental Dance Mix).wav
Pre-gap length 0:00:01.00
Peak level 98.8 %
Extraction speed 4.3 X
Track quality 100.0 %
Test CRC EE7E57C3
Copy CRC EE7E57C3
Accurately ripped (confidence 28) [2E2F29E1] (AR v2)
Copy OK
All tracks accurately ripped
No errors occurred
End of status report
---- CUETools DB Plugin V2.1.6
[CTDB TOCID: SH.GlmDDR46HqR9RQ4eq6e9_V2Q-] found
Submit result: already submitted
Track | CTDB Status
1 | (72/72) Accurately ripped
2 | (72/72) Accurately ripped
3 | (72/72) Accurately ripped
4 | (72/72) Accurately ripped
==== Log checksum 7C83BB884FA80F343D6325A5972888383E08FB1385C25FB1A7C715E548B03E76 ====

CUE

REM DATE 1995
REM DISCID 3604AE04
REM COMMENT "ExactAudioCopy v1.1"
PERFORMER "Music Instructor"
TITLE "Hymn"
FILE "01. Hymn (Single Edit).wav" WAVE
TRACK 01 AUDIO
TITLE "Hymn (Single Edit)"
PERFORMER "Music Instructor"
INDEX 01 00:00:00
TRACK 02 AUDIO
TITLE "Hymn (Go Down Mix)"
PERFORMER "Music Instructor"
INDEX 00 03:55:52
FILE "02. Hymn (Go Down Mix).wav" WAVE
INDEX 01 00:00:00
TRACK 03 AUDIO
TITLE "Hymn (Dance Mix)"
PERFORMER "Music Instructor"
INDEX 00 05:19:37
FILE "03. Hymn (Dance Mix).wav" WAVE
INDEX 01 00:00:00
TRACK 04 AUDIO
TITLE "Music Instructor (Instrumental Dance Mix)"
PERFORMER "Music Instructor"
INDEX 00 05:25:35
FILE "04. Music Instructor (Instrumental Dance Mix).wav" WAVE
INDEX 01 00:00:00

Music Instructor - Hymn (Remix) [7243 8 82530 2 4] [1995]


Продолжительность: 17:45
01. Music Instructor - Hymn (Instructor House Remix) [05:06]
02. Music Instructor - Hymn (Jungle Constructor Remix) [05:07]
03. Music Instructor - Hymn (Chill'N'Force Remix) [07:32]

log and sheet

Log

Exact Audio Copy V1.1 from 23. June 2015
EAC extraction logfile from 31. May 2016, 13:28
Music Instructor / Hymn (Remix)
Used drive : ASUS SDRW-08D2S-U Adapter: 1 ID: 0
Read mode : Secure
Utilize accurate stream : Yes
Defeat audio cache : Yes
Make use of C2 pointers : No
Read offset correction : 6
Overread into Lead-In and Lead-Out : No
Fill up missing offset samples with silence : Yes
Delete leading and trailing silent blocks : No
Null samples used in CRC calculations : Yes
Used interface : Native Win32 interface for Win NT & 2000
Gap handling : Appended to previous track
Used output format : User Defined Encoder
Selected bitrate : 32 kBit/s
Quality : High
Add ID3 tag : No
Command line compressor : C:\Exact Audio Copy [installed]\Flac\flac.exe
Additional command line options : -8 -V -T "ARTIST=%artist%" -T "TITLE=%title%" -T "ALBUM=%albumtitle%" -T "DATE=%year%" -T "TRACKNUMBER=%tracknr%" -T "GENRE=%genre%" -T "COMMENT=ripped by Andy aka yetiisyou" %source%
TOC of the extracted CD
Track | Start | Length | Start sector | End sector
---------------------------------------------------------
1 | 0:00.00 | 5:05.65 | 0 | 22939
2 | 5:05.65 | 5:06.72 | 22940 | 45961
3 | 10:12.62 | 7:31.45 | 45962 | 79831
Track 1
Filename E:\!Ripped by Andy aka yetiisyou\Music Instructor - Hymn (Remix) [7243 8 82530 2 4] [1995]\01. Hymn (Instructor House Remix).wav
Pre-gap length 0:00:02.00
Peak level 96.9 %
Extraction speed 2.9 X
Track quality 100.0 %
Test CRC 7A051F54
Copy CRC 7A051F54
Accurately ripped (confidence 4) [99C7AE6C] (AR v2)
Copy OK
Track 2
Filename E:\!Ripped by Andy aka yetiisyou\Music Instructor - Hymn (Remix) [7243 8 82530 2 4] [1995]\02. Hymn (Jungle Constructor Remix).wav
Pre-gap length 0:00:01.23
Peak level 97.7 %
Extraction speed 3.3 X
Track quality 100.0 %
Test CRC 9B99F671
Copy CRC 9B99F671
Accurately ripped (confidence 4) [FF706246] (AR v2)
Copy OK
Track 3
Filename E:\!Ripped by Andy aka yetiisyou\Music Instructor - Hymn (Remix) [7243 8 82530 2 4] [1995]\03. Hymn (Chill'N'Force Remix).wav
Pre-gap length 0:00:01.25
Peak level 100.0 %
Extraction speed 3.9 X
Track quality 100.0 %
Test CRC 7C90B1BD
Copy CRC 7C90B1BD
Accurately ripped (confidence 4) [5B0D2FC3] (AR v2)
Copy OK
All tracks accurately ripped
No errors occurred
End of status report
---- CUETools DB Plugin V2.1.6
[CTDB TOCID: Vfis.PB8ZldhFTVZrOomNIR9sns-] found
Submit result: Vfis.PB8ZldhFTVZrOomNIR9sns- has been confirmed
Track | CTDB Status
1 | (1/1) Accurately ripped
2 | (1/1) Accurately ripped
3 | (1/1) Accurately ripped
==== Log checksum 169AE45CEC2B1D643A5E3AFCC46ACE8FDACBD51270224E785095665F98FE9B69 ====

CUE

REM DATE 1995
REM DISCID 17042803
REM COMMENT "ExactAudioCopy v1.1"
PERFORMER "Music Instructor"
TITLE "Hymn (Remix)"
FILE "01. Hymn (Instructor House Remix).wav" WAVE
TRACK 01 AUDIO
TITLE "Hymn (Instructor House Remix)"
PERFORMER "Music Instructor"
INDEX 01 00:00:00
TRACK 02 AUDIO
TITLE "Hymn (Jungle Constructor Remix)"
PERFORMER "Music Instructor"
INDEX 00 05:04:42
FILE "02. Hymn (Jungle Constructor Remix).wav" WAVE
INDEX 01 00:00:00
TRACK 03 AUDIO
TITLE "Hymn (Chill'N'Force Remix)"
PERFORMER "Music Instructor"
INDEX 00 05:05:47
FILE "03. Hymn (Chill'N'Force Remix).wav" WAVE
INDEX 01 00:00:00

Music Instructor feat. Dean - Super Fly (Upper MC) [8573-84731-2] [2000]


Продолжительность: 18:12
01. Music Instructor - Super Fly (Single Edit) [03:44]
02. Music Instructor - Super Fly (Maxi Version) [05:03]
03. Music Instructor - Super Fly (Genlog Remix) [04:02]
04. Music Instructor - Super Fly (Genlog Remix Extended Version) [05:25]

log and sheet

Log

Exact Audio Copy V1.1 from 23. June 2015
EAC extraction logfile from 31. May 2016, 22:17
Music Instructor / Super Fly feat. Dean (Upper MC)
Used drive : ASUS SDRW-08D2S-U Adapter: 1 ID: 0
Read mode : Secure
Utilize accurate stream : Yes
Defeat audio cache : Yes
Make use of C2 pointers : No
Read offset correction : 6
Overread into Lead-In and Lead-Out : No
Fill up missing offset samples with silence : Yes
Delete leading and trailing silent blocks : No
Null samples used in CRC calculations : Yes
Used interface : Native Win32 interface for Win NT & 2000
Gap handling : Appended to previous track
Used output format : User Defined Encoder
Selected bitrate : 32 kBit/s
Quality : High
Add ID3 tag : No
Command line compressor : C:\Exact Audio Copy [installed]\Flac\flac.exe
Additional command line options : -8 -V -T "ARTIST=%artist%" -T "TITLE=%title%" -T "ALBUM=%albumtitle%" -T "DATE=%year%" -T "TRACKNUMBER=%tracknr%" -T "GENRE=%genre%" -T "COMMENT=ripped by Andy aka yetiisyou" %source%
TOC of the extracted CD
Track | Start | Length | Start sector | End sector
---------------------------------------------------------
1 | 0:00.00 | 3:43.67 | 0 | 16791
2 | 3:43.67 | 5:02.08 | 16792 | 39449
3 | 8:46.00 | 4:01.12 | 39450 | 57536
4 | 12:47.12 | 5:24.13 | 57537 | 81849
Track 1
Filename E:\!Ripped by Andy aka yetiisyou\Music Instructor feat. Dean - Super Fly (Upper MC) [8573-84731-2] [2000]\01. Super Fly (Single Edit).wav
Pre-gap length 0:00:02.00
Peak level 99.9 %
Extraction speed 2.6 X
Track quality 100.0 %
Test CRC F97A85D5
Copy CRC F97A85D5
Accurately ripped (confidence 9) [A37EFDE5] (AR v2)
Copy OK
Track 2
Filename E:\!Ripped by Andy aka yetiisyou\Music Instructor feat. Dean - Super Fly (Upper MC) [8573-84731-2] [2000]\02. Super Fly (Maxi Version).wav
Pre-gap length 0:00:01.45
Peak level 99.8 %
Extraction speed 2.6 X
Track quality 99.9 %
Test CRC BE61877D
Copy CRC BE61877D
Accurately ripped (confidence 9) [82DEDDB4] (AR v2)
Copy OK
Track 3
Filename E:\!Ripped by Andy aka yetiisyou\Music Instructor feat. Dean - Super Fly (Upper MC) [8573-84731-2] [2000]\03. Super Fly (Genlog Remix).wav
Pre-gap length 0:00:01.60
Peak level 82.2 %
Extraction speed 3.3 X
Track quality 100.0 %
Test CRC 501A1A8F
Copy CRC 501A1A8F
Accurately ripped (confidence 9) [9246EBEF] (AR v2)
Copy OK
Track 4
Filename E:\!Ripped by Andy aka yetiisyou\Music Instructor feat. Dean - Super Fly (Upper MC) [8573-84731-2] [2000]\04. Super Fly (Genlog Remix Extended Version).wav
Pre-gap length 0:00:01.70
Peak level 82.2 %
Extraction speed 3.7 X
Track quality 100.0 %
Test CRC 123FB031
Copy CRC 123FB031
Accurately ripped (confidence 9) [91D65222] (AR v2)
Copy OK
All tracks accurately ripped
No errors occurred
End of status report
---- CUETools DB Plugin V2.1.6
[CTDB TOCID: P2hOkFQoP3pQZiC9en0t7kVpQzo-] found
Submit result: P2hOkFQoP3pQZiC9en0t7kVpQzo- has been confirmed
Track | CTDB Status
1 | (16/17) Accurately ripped
2 | (17/17) Accurately ripped
3 | (17/17) Accurately ripped
4 | (17/17) Accurately ripped
==== Log checksum 0FFAE98A15E3206CF85475D4CC63AFE8F388E2273E0CD0FABEEDA41002054E6F ====

CUE

REM GENRE Dance
REM DATE 1998
REM DISCID 30044304
REM COMMENT "ExactAudioCopy v1.1"
PERFORMER "Music Instructor"
TITLE "Super Fly feat. Dean (Upper MC)"
FILE "01. Super Fly (Single Edit).wav" WAVE
TRACK 01 AUDIO
TITLE "Super Fly (Single Edit)"
PERFORMER "Music Instructor"
ISRC DEA610061630
INDEX 01 00:00:00
TRACK 02 AUDIO
TITLE "Super Fly (Maxi Version)"
PERFORMER "Music Instructor"
ISRC DEA610061631
INDEX 00 03:42:22
FILE "02. Super Fly (Maxi Version).wav" WAVE
INDEX 01 00:00:00
TRACK 03 AUDIO
TITLE "Super Fly (Genlog Remix)"
PERFORMER "Music Instructor"
ISRC DEA610061632
INDEX 00 05:00:23
FILE "03. Super Fly (Genlog Remix).wav" WAVE
INDEX 01 00:00:00
TRACK 04 AUDIO
TITLE "Super Fly (Genlog Remix Extended Version)"
PERFORMER "Music Instructor"
ISRC DEA610061635
INDEX 00 03:59:17
FILE "04. Super Fly (Genlog Remix Extended Version).wav" WAVE
INDEX 01 00:00:00
Вы не можете начинать темы
Вы не можете отвечать на сообщения
Вы не можете редактировать свои сообщения
Вы не можете удалять свои сообщения
Вы не можете голосовать в опросах
Вы не можете прикреплять файлы к сообщениям
Вы можете скачивать файлы
!ВНИМАНИЕ!

Сайт не предоставляет электронные версии произведений, а занимается лишь коллекционированием и каталогизацией ссылок, присылаемых и публикуемых на форуме нашими читателями. Если вы являетесь правообладателем какого-либо представленного материала и не желаете, чтобы ссылка на него находилась в нашем каталоге, свяжитесь с нами, и мы незамедлительно удалим ее. Файлы для обмена на трекере предоставлены пользователями сайта, и администрация не несет ответственности за их содержание. Просьба не заливать файлы, защищенные авторскими правами, а также файлы нелегального содержания!

Искали программы, игры, дополнения, музыка mp3, аниме, аудио книги, журналы? Добро пожаловать на свободный торрент трекер Torrents, у нас можно скачать бесплатно, без смс и регистрации и прочих ограничений лучшие, отборные сборки программ, игр. Скачать торрентом не составит труда даже не опытному пользователю. Раздачи ежедневно обновляются, только лучшие и качественные раздачи, подробные описания и скриншоты. Огромная коллекция программ для работы со звуком, графикой, дизайном, а так же множество плагинов и инструментов к ним с подробной инструкцией и рекомендациями. Прошивки для навигаторов, карты. Разнообразные игры, для Windows, Linux. В коллекцие есть и старые игры любых жанров, Rpg, Action, Shooter, strategy Множество дополнений, модификаций, сценариев для популярных игр в жанре экш, рпг, гонки, стратегии, логические игры. Множество аддонов и сценариев для Microsoft Flight Simulator Большая коллекция книг, учебников. Если нет возможности купить печатное издание - смело скачивайте цифровую версию книги или, быть может, журнала. Не любите читать - можно загрузить бесплатно аудикнигу. Для веб дизайнеров и программистов так же найдется множество специализированного софта, таких как: редакторы с подсветкой, среды программирования, компоненты, системы управления базами данных, разнообразные скрипты и шаблоны. Не так давно у нас появился материал для автолюбителей и владельцев мото - оригинальные и неоригинальные каталоги запчастей, книги и журналы по ремонту и обслуживанию, видеоуроки, статьи по чип тюнингу, прошивкам. Процедура получения контента элементарная, достаточно просто скачать торрент файл и добавить его в загрузку в вашем торрент клиенте. Если у вас нет специального торрент клиента, вы можете его скачать у нас.