(Electro) [CD] SebastiAn - Total (2011), FLAC (tracks+.cue), lossless 

Цитировать
SebastiAn - Total
Жанр: Electro
Носитель: CD
Страна-производитель диска: Europe
Год издания: 30 May 2011
Издатель (лейбл): Ed Banger Records / Because Music
Номер по каталогу: BEC5772848
Аудиокодек: FLAC (*.flac)
Тип рипа: tracks+.cue
Битрейт аудио: lossless
Продолжительность: 00:51:26
Источник: waffles
Наличие сканов: нет
01. Hudson River
02. Love In Motion (feat. Mayer Hawthorne)
03. Tough Games (Interlude)
04. Embody
05. Ross Ross Ross
06. Fried
07. Kindercut
08. Water Games (Interlude)
09. Total
10. Jack Wire (Instrumental Version)
11. C.T.F.O. (feat. M.I.A.)
12. Cartoon (Interlude)
13. Arabest
14. Prime
15. Mean Games (Interlude)
16. Tetra
17. Motor
18. Night (Interlude)
19. Yes
20. Bird Games (Interlude)
21. Doggg
22. Frustra (Outro)

Лог создания рипа

Exact Audio Copy V1.0 beta 4 from 7. December 2014
EAC extraction logfile from 28. January 2015, 1:59
SebastiAn / Total
Used drive : ASUS DRW-24B1ST a Adapter: 1 ID: 0
Read mode : Secure
Utilize accurate stream : Yes
Defeat audio cache : Yes
Make use of C2 pointers : No
Read offset correction : 6
Overread into Lead-In and Lead-Out : No
Fill up missing offset samples with silence : Yes
Delete leading and trailing silent blocks : No
Null samples used in CRC calculations : Yes
Used interface : Native Win32 interface for Win NT & 2000
Gap handling : Appended to previous track
Used output format : User Defined Encoder
Selected bitrate : 1024 kBit/s
Quality : High
Add ID3 tag : No
Command line compressor : C:\Program Files (x86)\Exact Audio Copy\Flac\flac.exe
Additional command line options : -8 -V -T "artist=%artist%" -T "title=%title%" -T "album=%albumtitle%" -T "date=%year%" -T "tracknumber=%tracknr%" -T "genre=%genre%" %source%
TOC of the extracted CD
Track | Start | Length | Start sector | End sector
---------------------------------------------------------
1 | 0:00.00 | 0:50.73 | 0 | 3822
2 | 0:50.73 | 3:05.63 | 3823 | 17760
3 | 3:56.61 | 0:40.61 | 17761 | 20821
4 | 4:37.47 | 3:45.47 | 20822 | 37743
5 | 8:23.19 | 3:39.59 | 37744 | 54227
6 | 12:03.03 | 4:03.74 | 54228 | 72526
7 | 16:07.02 | 4:06.59 | 72527 | 91035
8 | 20:13.61 | 0:37.53 | 91036 | 93863
9 | 20:51.39 | 1:21.65 | 93864 | 100003
10 | 22:13.29 | 2:44.30 | 100004 | 112333
11 | 24:57.59 | 2:55.10 | 112334 | 125468
12 | 27:52.69 | 0:34.12 | 125469 | 128030
13 | 28:27.06 | 3:16.00 | 128031 | 142730
14 | 31:43.06 | 3:06.69 | 142731 | 156749
15 | 34:50.00 | 0:53.00 | 156750 | 160724
16 | 35:43.00 | 2:54.46 | 160725 | 173820
17 | 38:37.46 | 4:03.20 | 173821 | 192065
18 | 42:40.66 | 0:46.08 | 192066 | 195523
19 | 43:26.74 | 3:42.41 | 195524 | 212214
20 | 47:09.40 | 0:37.39 | 212215 | 215028
21 | 47:47.04 | 3:12.19 | 215029 | 229447
22 | 50:59.23 | 0:26.53 | 229448 | 231450
Track 1
Filename C:\EAC Rips\Total\01 - Hudson River.wav
Pre-gap length 0:00:02.00
Peak level 100.0 %
Extraction speed 2.0 X
Track quality 100.0 %
Test CRC 94F98516
Copy CRC 94F98516
Accurately ripped (confidence 7) [163BA9C3] (AR v2)
Copy OK
Track 2
Filename C:\EAC Rips\Total\02 - Love In Motion (feat. Mayer Hawthorne).wav
Peak level 100.0 %
Extraction speed 3.3 X
Track quality 100.0 %
Test CRC 3A8229B4
Copy CRC 3A8229B4
Accurately ripped (confidence 7) [CBEE0234] (AR v2)
Copy OK
Track 3
Filename C:\EAC Rips\Total\03 - Tough Games (Interlude).wav
Peak level 100.0 %
Extraction speed 1.1 X
Track quality 99.7 %
Test CRC 0D803B96
Copy CRC 0D803B96
Accurately ripped (confidence 7) [210D2E1B] (AR v2)
Copy OK
Track 4
Filename C:\EAC Rips\Total\04 - Embody.wav
Peak level 100.0 %
Extraction speed 3.7 X
Track quality 100.0 %
Test CRC 70B396DD
Copy CRC 70B396DD
Accurately ripped (confidence 7) [A73BDAA6] (AR v2)
Copy OK
Track 5
Filename C:\EAC Rips\Total\05 - Ross Ross Ross.wav
Peak level 100.0 %
Extraction speed 3.2 X
Track quality 99.9 %
Test CRC 908B11B2
Copy CRC 908B11B2
Accurately ripped (confidence 7) [72634FAB] (AR v2)
Copy OK
Track 6
Filename C:\EAC Rips\Total\06 - Fried.wav
Peak level 100.0 %
Extraction speed 3.5 X
Track quality 99.9 %
Test CRC 5653A0AD
Copy CRC 5653A0AD
Accurately ripped (confidence 7) [5C7AC0F0] (AR v2)
Copy OK
Track 7
Filename C:\EAC Rips\Total\07 - Kindercut.wav
Peak level 100.0 %
Extraction speed 4.6 X
Track quality 100.0 %
Test CRC AB566FA3
Copy CRC AB566FA3
Accurately ripped (confidence 7) [BAD69045] (AR v2)
Copy OK
Track 8
Filename C:\EAC Rips\Total\08 - Water Games (Interlude).wav
Peak level 89.1 %
Extraction speed 2.8 X
Track quality 100.0 %
Test CRC 7C730D6A
Copy CRC 7C730D6A
Accurately ripped (confidence 7) [A4E056D9] (AR v2)
Copy OK
Track 9
Filename C:\EAC Rips\Total\09 - Total.wav
Peak level 100.0 %
Extraction speed 3.8 X
Track quality 100.0 %
Test CRC DF3CA09B
Copy CRC DF3CA09B
Accurately ripped (confidence 7) [EC411CEE] (AR v2)
Copy OK
Track 10
Filename C:\EAC Rips\Total\10 - Jack Wire (Instrumental Version).wav
Peak level 100.0 %
Extraction speed 4.7 X
Track quality 100.0 %
Test CRC 5ABC3F81
Copy CRC 5ABC3F81
Accurately ripped (confidence 7) [77ED1B10] (AR v2)
Copy OK
Track 11
Filename C:\EAC Rips\Total\11 - C.T.F.O. (feat. M.I.A.).wav
Peak level 100.0 %
Extraction speed 4.9 X
Track quality 100.0 %
Test CRC E4BE6AB9
Copy CRC E4BE6AB9
Accurately ripped (confidence 7) [C9B77014] (AR v2)
Copy OK
Track 12
Filename C:\EAC Rips\Total\12 - Cartoon (Interlude).wav
Peak level 100.0 %
Extraction speed 1.4 X
Track quality 99.6 %
Test CRC 6916E34F
Copy CRC 6916E34F
Accurately ripped (confidence 7) [7FF131F6] (AR v2)
Copy OK
Track 13
Filename C:\EAC Rips\Total\13 - Arabest.wav
Peak level 100.0 %
Extraction speed 5.2 X
Track quality 100.0 %
Test CRC 9ADB1564
Copy CRC 9ADB1564
Accurately ripped (confidence 7) [DF3C82E1] (AR v2)
Copy OK
Track 14
Filename C:\EAC Rips\Total\14 - Prime.wav
Peak level 100.0 %
Extraction speed 4.1 X
Track quality 99.9 %
Test CRC 1E5CDD63
Copy CRC 1E5CDD63
Accurately ripped (confidence 7) [C914AF57] (AR v2)
Copy OK
Track 15
Filename C:\EAC Rips\Total\15 - Mean Games (Interlude).wav
Peak level 100.0 %
Extraction speed 3.8 X
Track quality 100.0 %
Test CRC F760980C
Copy CRC F760980C
Accurately ripped (confidence 7) [D6640338] (AR v2)
Copy OK
Track 16
Filename C:\EAC Rips\Total\16 - Tetra.wav
Peak level 100.0 %
Extraction speed 4.1 X
Track quality 99.9 %
Test CRC 8C3F3CFA
Copy CRC 8C3F3CFA
Accurately ripped (confidence 7) [8C6D8DCF] (AR v2)
Copy OK
Track 17
Filename C:\EAC Rips\Total\17 - Motor.wav
Peak level 100.0 %
Extraction speed 5.9 X
Track quality 100.0 %
Test CRC BCEA9F4E
Copy CRC BCEA9F4E
Accurately ripped (confidence 7) [D37C5E9F] (AR v2)
Copy OK
Track 18
Filename C:\EAC Rips\Total\18 - Night (Interlude).wav
Peak level 100.0 %
Extraction speed 3.8 X
Track quality 100.0 %
Test CRC 079BF164
Copy CRC 079BF164
Accurately ripped (confidence 7) [93465D11] (AR v2)
Copy OK
Track 19
Filename C:\EAC Rips\Total\19 - Yes.wav
Peak level 100.0 %
Extraction speed 6.0 X
Track quality 100.0 %
Test CRC CF65363D
Copy CRC CF65363D
Accurately ripped (confidence 7) [F7757485] (AR v2)
Copy OK
Track 20
Filename C:\EAC Rips\Total\20 - Bird Games (Interlude).wav
Peak level 100.0 %
Extraction speed 1.7 X
Track quality 99.7 %
Test CRC 4AAD2E3D
Copy CRC 4AAD2E3D
Accurately ripped (confidence 7) [A86F2D06] (AR v2)
Copy OK
Track 21
Filename C:\EAC Rips\Total\21 - Doggg.wav
Peak level 100.0 %
Extraction speed 4.7 X
Track quality 99.9 %
Test CRC F8C96141
Copy CRC F8C96141
Accurately ripped (confidence 7) [CA035A39] (AR v2)
Copy OK
Track 22
Filename C:\EAC Rips\Total\22 - Frustra (Outro).wav
Peak level 51.8 %
Extraction speed 3.0 X
Track quality 100.0 %
Test CRC 2F26B6A1
Copy CRC 2F26B6A1
Accurately ripped (confidence 7) [F8EF5A82] (AR v2)
Copy OK
All tracks accurately ripped
No errors occurred
End of status report
---- CUETools DB Plugin V2.1.4
[CTDB TOCID: BRNwm3B.bQ486zecepXBo.4tKrA-] found
Submit result: BRNwm3B.bQ486zecepXBo.4tKrA- has been confirmed
Track | CTDB Status
1 | (16/16) Accurately ripped
2 | (16/16) Accurately ripped
3 | (16/16) Accurately ripped
4 | (16/16) Accurately ripped
5 | (16/16) Accurately ripped
6 | (16/16) Accurately ripped
7 | (16/16) Accurately ripped
8 | (16/16) Accurately ripped
9 | (16/16) Accurately ripped
10 | (16/16) Accurately ripped
11 | (16/16) Accurately ripped
12 | (16/16) Accurately ripped
13 | (16/16) Accurately ripped
14 | (16/16) Accurately ripped
15 | (16/16) Accurately ripped
16 | (16/16) Accurately ripped
17 | (16/16) Accurately ripped
18 | (16/16) Accurately ripped
19 | (16/16) Accurately ripped
20 | (16/16) Accurately ripped
21 | (16/16) Accurately ripped
22 | (16/16) Accurately ripped
==== Log checksum A8C760FDFD42A10C970D16F1FD675602D742C39613FDCE7AA85A42A6681AA731 ====

Содержание индексной карты (.CUE)

REM GENRE Electronic
REM DATE 2011
REM DISCID 3A0C0E16
REM COMMENT "ExactAudioCopy v1.0b4"
PERFORMER "SebastiAn"
TITLE "Total"
FILE "01 - Hudson River.wav" WAVE
TRACK 01 AUDIO
TITLE "Hudson River"
PERFORMER "SebastiAn"
ISRC FR0NT1100010
INDEX 01 00:00:00
FILE "02 - Love In Motion (feat. Mayer Hawthorne).wav" WAVE
TRACK 02 AUDIO
TITLE "Love In Motion (feat. Mayer Hawthorne)"
PERFORMER "SebastiAn"
ISRC FR0NT1100020
INDEX 01 00:00:00
FILE "03 - Tough Games (Interlude).wav" WAVE
TRACK 03 AUDIO
TITLE "Tough Games (Interlude)"
PERFORMER "SebastiAn"
ISRC FR0NT1100040
INDEX 01 00:00:00
FILE "04 - Embody.wav" WAVE
TRACK 04 AUDIO
TITLE "Embody"
PERFORMER "SebastiAn"
ISRC FR0NT1100050
INDEX 01 00:00:00
FILE "05 - Ross Ross Ross.wav" WAVE
TRACK 05 AUDIO
TITLE "Ross Ross Ross"
PERFORMER "SebastiAn"
ISRC FR0NT0600090
INDEX 01 00:00:00
FILE "06 - Fried.wav" WAVE
TRACK 06 AUDIO
TITLE "Fried"
PERFORMER "SebastiAn"
ISRC FR0NT1100070
INDEX 01 00:00:00
FILE "07 - Kindercut.wav" WAVE
TRACK 07 AUDIO
TITLE "Kindercut"
PERFORMER "SebastiAn"
ISRC FR0NT1100080
INDEX 01 00:00:00
FILE "08 - Water Games (Interlude).wav" WAVE
TRACK 08 AUDIO
TITLE "Water Games (Interlude)"
PERFORMER "SebastiAn"
ISRC FR0NT1100090
INDEX 01 00:00:00
FILE "09 - Total.wav" WAVE
TRACK 09 AUDIO
TITLE "Total"
PERFORMER "SebastiAn"
ISRC FR0NT1100100
INDEX 01 00:00:00
FILE "10 - Jack Wire (Instrumental Version).wav" WAVE
TRACK 10 AUDIO
TITLE "Jack Wire (Instrumental Version)"
PERFORMER "SebastiAn"
ISRC FR0NT1100110
INDEX 01 00:00:00
FILE "11 - C.T.F.O. (feat. M.I.A.).wav" WAVE
TRACK 11 AUDIO
TITLE "C.T.F.O. (feat. M.I.A.)"
PERFORMER "SebastiAn"
ISRC FR0NT1100120
INDEX 01 00:00:00
FILE "12 - Cartoon (Interlude).wav" WAVE
TRACK 12 AUDIO
TITLE "Cartoon (Interlude)"
PERFORMER "SebastiAn"
ISRC FR0NT1100130
INDEX 01 00:00:00
FILE "13 - Arabest.wav" WAVE
TRACK 13 AUDIO
TITLE "Arabest"
PERFORMER "SebastiAn"
ISRC FR0NT1100140
INDEX 01 00:00:00
FILE "14 - Prime.wav" WAVE
TRACK 14 AUDIO
TITLE "Prime"
PERFORMER "SebastiAn"
ISRC FR0NT1100150
INDEX 01 00:00:00
FILE "15 - Mean Games (Interlude).wav" WAVE
TRACK 15 AUDIO
TITLE "Mean Games (Interlude)"
PERFORMER "SebastiAn"
ISRC FR0NT1100160
INDEX 01 00:00:00
FILE "16 - Tetra.wav" WAVE
TRACK 16 AUDIO
TITLE "Tetra"
PERFORMER "SebastiAn"
ISRC FR0NT1100170
INDEX 01 00:00:00
FILE "17 - Motor.wav" WAVE
TRACK 17 AUDIO
TITLE "Motor"
PERFORMER "SebastiAn"
ISRC FR0NT0800060
INDEX 01 00:00:00
FILE "18 - Night (Interlude).wav" WAVE
TRACK 18 AUDIO
TITLE "Night (Interlude)"
PERFORMER "SebastiAn"
ISRC FR0NT1100190
INDEX 01 00:00:00
FILE "19 - Yes.wav" WAVE
TRACK 19 AUDIO
TITLE "Yes"
PERFORMER "SebastiAn"
ISRC FR0NT1100200
INDEX 01 00:00:00
FILE "20 - Bird Games (Interlude).wav" WAVE
TRACK 20 AUDIO
TITLE "Bird Games (Interlude)"
PERFORMER "SebastiAn"
ISRC FR0NT1100210
INDEX 01 00:00:00
FILE "21 - Doggg.wav" WAVE
TRACK 21 AUDIO
TITLE "Doggg"
PERFORMER "SebastiAn"
ISRC FR0NT0800250
INDEX 01 00:00:00
FILE "22 - Frustra (Outro).wav" WAVE
TRACK 22 AUDIO
TITLE "Frustra (Outro)"
PERFORMER "SebastiAn"
ISRC FR0NT1100230
INDEX 01 00:00:00
Вы не можете начинать темы
Вы не можете отвечать на сообщения
Вы не можете редактировать свои сообщения
Вы не можете удалять свои сообщения
Вы не можете голосовать в опросах
Вы не можете прикреплять файлы к сообщениям
Вы можете скачивать файлы
!ВНИМАНИЕ!

Сайт не предоставляет электронные версии произведений, а занимается лишь коллекционированием и каталогизацией ссылок, присылаемых и публикуемых на форуме нашими читателями. Если вы являетесь правообладателем какого-либо представленного материала и не желаете, чтобы ссылка на него находилась в нашем каталоге, свяжитесь с нами, и мы незамедлительно удалим ее. Файлы для обмена на трекере предоставлены пользователями сайта, и администрация не несет ответственности за их содержание. Просьба не заливать файлы, защищенные авторскими правами, а также файлы нелегального содержания!

Искали программы, игры, дополнения, музыка mp3, аниме, аудио книги, журналы? Добро пожаловать на свободный торрент трекер Torrents, у нас можно скачать бесплатно, без смс и регистрации и прочих ограничений лучшие, отборные сборки программ, игр. Скачать торрентом не составит труда даже не опытному пользователю. Раздачи ежедневно обновляются, только лучшие и качественные раздачи, подробные описания и скриншоты. Огромная коллекция программ для работы со звуком, графикой, дизайном, а так же множество плагинов и инструментов к ним с подробной инструкцией и рекомендациями. Прошивки для навигаторов, карты. Разнообразные игры, для Windows, Linux. В коллекцие есть и старые игры любых жанров, Rpg, Action, Shooter, strategy Множество дополнений, модификаций, сценариев для популярных игр в жанре экш, рпг, гонки, стратегии, логические игры. Множество аддонов и сценариев для Microsoft Flight Simulator Большая коллекция книг, учебников. Если нет возможности купить печатное издание - смело скачивайте цифровую версию книги или, быть может, журнала. Не любите читать - можно загрузить бесплатно аудикнигу. Для веб дизайнеров и программистов так же найдется множество специализированного софта, таких как: редакторы с подсветкой, среды программирования, компоненты, системы управления базами данных, разнообразные скрипты и шаблоны. Не так давно у нас появился материал для автолюбителей и владельцев мото - оригинальные и неоригинальные каталоги запчастей, книги и журналы по ремонту и обслуживанию, видеоуроки, статьи по чип тюнингу, прошивкам. Процедура получения контента элементарная, достаточно просто скачать торрент файл и добавить его в загрузку в вашем торрент клиенте. Если у вас нет специального торрент клиента, вы можете его скачать у нас.