(Electro) [CD] Anthony Rother - Netzwerk Der Zukunft - 2014, FLAC (tracks+.cue), lossless 

Цитировать
Anthony Rother - Netzwerk Der Zukunft

Жанр: Electro
Носитель: CD
Страна-производитель диска (релиза): Germany
Год издания: 2014
Издатель (лейбл): Psi49net
Номер по каталогу: PSI-101CD
Аудиокодек: FLAC (*.flac)
Тип рипа: tracks+.cue
Битрейт аудио: lossless
Продолжительность: 01:04:46
Источник (релизер): What.cd
Наличие сканов в содержимом раздачи: Нет
Треклист:
01. Ich Bin Ewig (I Am Forever)
02. Schöpfer (Creator)
03. Medium
04. Netzwerk (Network)
05. Zukunft (Future)
06. Technokultur (Techno Culture)
07. Widerstand (The Resistance)
08. Automat (Machine)
09. Momentum
10. In Digital Dominus

Лог создания рипа
Exact Audio Copy V1.0 beta 3 from 29. August 2011
EAC extraction logfile from 2. May 2014, 15:31
Anthony Rother / Netzwerk der Zukunft
Used drive : ATAPI iHAS124 B Adapter: 2 ID: 0
Read mode : SecureUtilize accurate stream : YesDefeat audio cache : YesMake use of C2 pointers : No
Read offset correction : 6Overread into Lead-In and Lead-Out : NoFill up missing offset samples with silence : YesDelete leading and trailing silent blocks : NoNull samples used in CRC calculations : YesUsed interface : Native Win32 interface for Win NT & 2000Gap handling : Appended to previous track
Used output format : User Defined EncoderSelected bitrate : 128 kBit/sQuality : HighAdd ID3 tag : NoCommand line compressor : C:\Program Files (x86)\Exact Audio Copy\Flac\flac.exeAdditional command line options : -8 -V -T "ARTIST=%artist%" -T "TITLE=%title%" -T "ALBUM=%albumtitle%" -T "DATE=%year%" -T "TRACKNUMBER=%tracknr1%" -T "GENRE=%genre%" -T "PERFORMER=%albuminterpret%" -T "COMPOSER=%composer%" %haslyrics%--tag-from-file=LYRICS="%lyricsfile%"%haslyrics% -T "ALBUMARTIST=%albumartist%" -T "DISCNUMBER=%cdnumber%" -T "TOTALDISCS=%totalcds%" -T "TOTALTRACKS=%numtracks%" -T "COMMENT=%comment%" %source% -o %dest%
TOC of the extracted CD
Track | Start | Length | Start sector | End sector --------------------------------------------------------- 1 | 0:00.00 | 7:35.65 | 0 | 34189 2 | 7:35.65 | 7:16.29 | 34190 | 66918 3 | 14:52.19 | 7:14.17 | 66919 | 99485 4 | 22:06.36 | 8:38.10 | 99486 | 138345 5 | 30:44.46 | 6:44.44 | 138346 | 168689 6 | 37:29.15 | 5:41.64 | 168690 | 194328 7 | 43:11.04 | 3:03.39 | 194329 | 208092 8 | 46:14.43 | 7:41.47 | 208093 | 242714 9 | 53:56.15 | 5:40.64 | 242715 | 268278 10 | 59:37.04 | 5:26.29 | 268279 | 292757
Track 1
Filename Z:\data\what\rips\Anthony Rother - 2014 - Netzwerk der Zukunft\01 - Ich Bin Ewig.wav
Pre-gap length 0:00:02.00
Peak level 92.2 % Extraction speed 4.1 X Track quality 100.0 % Test CRC 7ACE3292 Copy CRC 7ACE3292 Track not present in AccurateRip database Copy OK
Track 2
Filename Z:\data\what\rips\Anthony Rother - 2014 - Netzwerk der Zukunft\02 - Schöpfer.wav
Pre-gap length 0:00:01.74
Peak level 97.0 % Extraction speed 4.8 X Track quality 100.0 % Test CRC 3F903A56 Copy CRC 3F903A56 Track not present in AccurateRip database Copy OK
Track 3
Filename Z:\data\what\rips\Anthony Rother - 2014 - Netzwerk der Zukunft\03 - Medium.wav
Pre-gap length 0:00:01.74
Peak level 91.3 % Extraction speed 5.0 X Track quality 99.9 % Test CRC F66BEFAA Copy CRC F66BEFAA Track not present in AccurateRip database Copy OK
Track 4
Filename Z:\data\what\rips\Anthony Rother - 2014 - Netzwerk der Zukunft\04 - Netzwerk.wav
Pre-gap length 0:00:01.74
Peak level 98.1 % Extraction speed 6.1 X Track quality 100.0 % Test CRC 0D741EEA Copy CRC 0D741EEA Track not present in AccurateRip database Copy OK
Track 5
Filename Z:\data\what\rips\Anthony Rother - 2014 - Netzwerk der Zukunft\05 - Zukunft.wav
Pre-gap length 0:00:01.74
Peak level 79.7 % Extraction speed 6.4 X Track quality 100.0 % Test CRC 9D52079B Copy CRC 9D52079B Track not present in AccurateRip database Copy OK
Track 6
Filename Z:\data\what\rips\Anthony Rother - 2014 - Netzwerk der Zukunft\06 - Technokultur.wav
Pre-gap length 0:00:01.74
Peak level 74.0 % Extraction speed 6.7 X Track quality 100.0 % Test CRC 8C104893 Copy CRC 8C104893 Track not present in AccurateRip database Copy OK
Track 7
Filename Z:\data\what\rips\Anthony Rother - 2014 - Netzwerk der Zukunft\07 - Widerstand.wav
Pre-gap length 0:00:01.74
Peak level 90.5 % Extraction speed 6.3 X Track quality 100.0 % Test CRC FD29E81B Copy CRC FD29E81B Track not present in AccurateRip database Copy OK
Track 8
Filename Z:\data\what\rips\Anthony Rother - 2014 - Netzwerk der Zukunft\08 - Automat.wav
Pre-gap length 0:00:01.74
Peak level 97.1 % Extraction speed 7.4 X Track quality 100.0 % Test CRC 7FA00092 Copy CRC 7FA00092 Track not present in AccurateRip database Copy OK
Track 9
Filename Z:\data\what\rips\Anthony Rother - 2014 - Netzwerk der Zukunft\09 - Momentum.wav
Pre-gap length 0:00:01.74
Peak level 77.5 % Extraction speed 7.6 X Track quality 100.0 % Test CRC B6F64FD9 Copy CRC B6F64FD9 Track not present in AccurateRip database Copy OK
Track 10
Filename Z:\data\what\rips\Anthony Rother - 2014 - Netzwerk der Zukunft\10 - In Digital Dominus.wav
Pre-gap length 0:00:01.74
Peak level 96.8 % Extraction speed 7.7 X Track quality 100.0 % Test CRC 9589D14E Copy CRC 9589D14E Track not present in AccurateRip database Copy OK
None of the tracks are present in the AccurateRip database
No errors occurred
End of status report
==== Log checksum B21D17BE5861904CD0B32A61506567D1F3E8D6B14945D77150D5BAF97096DD8D ====

Содержание индексной карты (.CUE)

REM GENRE ElectronicREM DATE 2014REM DISCID A30F3F0AREM COMMENT "ExactAudioCopy v1.0b3"PERFORMER "Anthony Rother"TITLE "Netzwerk Der Zukunft"FILE "01. Ich Bin Ewig (I Am Forever).wav" WAVE  TRACK 01 AUDIO    TITLE "Ich Bin Ewig (I Am Forever)"    PERFORMER "Anthony Rother"    INDEX 01 00:00:00  TRACK 02 AUDIO    TITLE "Schopfer (Creator)"    PERFORMER "Anthony Rother"    INDEX 00 07:33:66FILE "02. Schopfer (Creator).wav" WAVE    INDEX 01 00:00:00  TRACK 03 AUDIO    TITLE "Medium"    PERFORMER "Anthony Rother"    INDEX 00 07:14:30FILE "03. Medium.wav" WAVE    INDEX 01 00:00:00  TRACK 04 AUDIO    TITLE "Netzwerk (Network)"    PERFORMER "Anthony Rother"    INDEX 00 07:12:18FILE "04. Netzwerk (Network).wav" WAVE    INDEX 01 00:00:00  TRACK 05 AUDIO    TITLE "Zukunft (Future)"    PERFORMER "Anthony Rother"    INDEX 00 08:36:11FILE "05. Zukunft (Future).wav" WAVE    INDEX 01 00:00:00  TRACK 06 AUDIO    TITLE "Technokultur (Techno Culture)"    PERFORMER "Anthony Rother"    INDEX 00 06:42:45FILE "06. Technokultur (Techno Culture).wav" WAVE    INDEX 01 00:00:00  TRACK 07 AUDIO    TITLE "Widerstand (The Resistance)"    PERFORMER "Anthony Rother"    INDEX 00 05:39:65FILE "07. Widerstand (The Resistance).wav" WAVE    INDEX 01 00:00:00  TRACK 08 AUDIO    TITLE "Automat (Machine)"    PERFORMER "Anthony Rother"    INDEX 00 03:01:40FILE "08. Automat (Machine).wav" WAVE    INDEX 01 00:00:00  TRACK 09 AUDIO    TITLE "Momentum"    PERFORMER "Anthony Rother"    INDEX 00 07:39:48FILE "09. Momentum.wav" WAVE    INDEX 01 00:00:00  TRACK 10 AUDIO    TITLE "In Digital Dominus"    PERFORMER "Anthony Rother"    INDEX 00 05:38:65FILE "10. In Digital Dominus.wav" WAVE    INDEX 01 00:00:00

Bonus Material

Бонус материалы к этому альбому, вы можете скачать совершенно бесплатно здесь:http://anthonyrother.bandcamp.com/album/netzwerk-der-zukunft-ringtone-videos-special-booklet

Оборудование использовавшееся при создании альбома

01. Ich Bin Ewig (I Am Forever)
Synthesizer [Jomox XBase09], Synthesizer [Korg MS-20 Mini], Synthesizer [Moog Voyager], Synthesizer [Clavia Nord Lead 3], Synthesizer [Waldorf Wave], Synthesizer [Roland JX-8P], Synthesizer [Access Virus A], Sampler [Logic EXS-24], Synthesizer [Speech-Synthesizer], Effects [U-He Uhbik], Synthesizer [Clavia Nord Modular G2X] – Anthony Rother
02. Schöpfer (Creator)
Synthesizer [Clavia Nord Modular G2X], Synthesizer [Clavia Nord Drum], Effects [Lexicon 480L], Synthesizer [Access Virus A], Synthesizer [Moog Voyager], Synthesizer [Roland JD-800], Synthesizer [Clavia Nord Wave], Sampler [Logic EXS-24], Mellotron, Synthesizer [Clavia Nord Lead 3], Effects [Waves Tap-Delay], Effects [Eventide H8000], Effects [Eventide Octavox] – Anthony Rother
03. Medium
Drum Machine [Novation Drumstation], Drum Machine [Akai XR-20], Synthesizer [AS Vostok], Synthesizer [Korg MS-20 Mini], Synthesizer [Clavia Nord Wave], Synthesizer [Roland JD-800], Synthesizer [Speech-Synthesizer], Effects [Eventide H8000] – Anthony Rother
04. Netzwerk (Network)
Drum Machine [Jomox MBase11], Synthesizer [Clavia Nord Modular G2X], Synthesizer [MAM ADX-1], Synthesizer [Moog Voyager], Synthesizer [Clavia Nord Wave], Synthesizer [Alesis Ion], Synthesizer [Korg MS-20 Mini], Synthesizer [Roland JX-8P], Synthesizer [Waldorf Wave], Effects [Waves H-Delay], Effects [Roland SDE-330], Effects [Soundtoys EchoBoy], Synthesizer [Access Virus TI], Effects [Eventide H8000] – Anthony Rother
05. Zukunft (Future)
Synthesizer [Moog Voyager], Effects [Lexicon PCM81], Synthesizer [MAM ADX-1], Synthesizer [Roland JX-8P], Synthesizer [Clavia Nord Wave], Synthesizer [Clavia Nord Lead 3], Effects [TC VSS3] – Anthony Rother
06. Technokultur (Techno Culture)
Synthesizer [Clavia Nord Drum 2], Synthesizer [Clavia Nord Drum], Effects [Eventide H8000], Synthesizer [Moog Voyager], Sampler [Logic EXS-24], Synthesizer [Roland JX-8P], Synthesizer [Clavia Nord Wave], Effects [Eventide Octavox], Effects [TC VSS3] – Anthony Rother
07. Widerstand (The Resistance)
Synthesizer [TE OP-1], Synthesizer [Alesis Ion], Synthesizer [Clavia Nord Wave], Synthesizer [Roland JX-8P], Effects [Waves H-Delay], Effects [Digidesign LoFi], Effects [TC VSS3] – Anthony Rother Words By – Helen Schilp
08. Automat (Machine)
Drum Machine [Novation Drumstation], Synthesizer [Clavia Nord Drum], Drum Machine [Roland TR-909], Effects [Eventide H8000], Synthesizer [AS Vostok], Synthesizer [Roland JD-800], Effects [Logic Space Designer], Effects [TC M-One XL], Synthesizer [Roland SH-101], Synthesizer [Roland JD-800], Effects [Waves H-Delay], Effects [Digidesign LoFi], Synthesizer [Clavia Nord Modular G2X], Effects [Eventide H8000], Effects [Soundtoys EchoBoy] – Anthony Rother
09. Momentum
Synthesizer [Clavia Nord Drum 2], Synthesizer [Clavia Nord Drum], Synthesizer [Waldorf Wave], Effects [Eventide H8000], Synthesizer [Clavia Nord Wave], Sampler [Logic EXS-24], Effects [TC VSS3], Synthesizer [Clavia Nord Lead 3], Effects [Lexicon PCM81] – Anthony Rother
10. In Digital Dominus
Synthesizer [Clavia Nord Drum 2], Synthesizer [Clavia Nord Drum], Synthesizer [TE OP-1], Synthesizer [Roland JX-8P], Synthesizer [Clavia Nord Wave], Sampler [Logic EXS-24], Effects [Lexicon 480L], Synthesizer [Roland Alpha Juno-2], Effects [Waves H-Delay], Effects [VirSyn Prism], Effects [U-He Uhbik] – Anthony Rother Words By – Helen Schilp
All songs composed in DAW Logic Audio 9 and mixed on Avid SC48.
Огромное Спасибо пользователю rutracker.org - KAЛИOCTPO - за помощь и поиск данного материала !!!
Вы не можете начинать темы
Вы не можете отвечать на сообщения
Вы не можете редактировать свои сообщения
Вы не можете удалять свои сообщения
Вы не можете голосовать в опросах
Вы не можете прикреплять файлы к сообщениям
Вы можете скачивать файлы
!ВНИМАНИЕ!

Сайт не предоставляет электронные версии произведений, а занимается лишь коллекционированием и каталогизацией ссылок, присылаемых и публикуемых на форуме нашими читателями. Если вы являетесь правообладателем какого-либо представленного материала и не желаете, чтобы ссылка на него находилась в нашем каталоге, свяжитесь с нами, и мы незамедлительно удалим ее. Файлы для обмена на трекере предоставлены пользователями сайта, и администрация не несет ответственности за их содержание. Просьба не заливать файлы, защищенные авторскими правами, а также файлы нелегального содержания!

Искали программы, игры, дополнения, музыка mp3, аниме, аудио книги, журналы? Добро пожаловать на свободный торрент трекер Torrents, у нас можно скачать бесплатно, без смс и регистрации и прочих ограничений лучшие, отборные сборки программ, игр. Скачать торрентом не составит труда даже не опытному пользователю. Раздачи ежедневно обновляются, только лучшие и качественные раздачи, подробные описания и скриншоты. Огромная коллекция программ для работы со звуком, графикой, дизайном, а так же множество плагинов и инструментов к ним с подробной инструкцией и рекомендациями. Прошивки для навигаторов, карты. Разнообразные игры, для Windows, Linux. В коллекцие есть и старые игры любых жанров, Rpg, Action, Shooter, strategy Множество дополнений, модификаций, сценариев для популярных игр в жанре экш, рпг, гонки, стратегии, логические игры. Множество аддонов и сценариев для Microsoft Flight Simulator Большая коллекция книг, учебников. Если нет возможности купить печатное издание - смело скачивайте цифровую версию книги или, быть может, журнала. Не любите читать - можно загрузить бесплатно аудикнигу. Для веб дизайнеров и программистов так же найдется множество специализированного софта, таких как: редакторы с подсветкой, среды программирования, компоненты, системы управления базами данных, разнообразные скрипты и шаблоны. Не так давно у нас появился материал для автолюбителей и владельцев мото - оригинальные и неоригинальные каталоги запчастей, книги и журналы по ремонту и обслуживанию, видеоуроки, статьи по чип тюнингу, прошивкам. Процедура получения контента элементарная, достаточно просто скачать торрент файл и добавить его в загрузку в вашем торрент клиенте. Если у вас нет специального торрент клиента, вы можете его скачать у нас.