Рыба-мечта (Антон Бильжо) [2016, Россия, Эстония, мелодрама, комедия, триллер, WEB-DL 1080p] Original Rus 

Цитировать
Рыба-мечта
Страна: Россия, Эстония
Жанр: мелодрама, комедия, триллер
Год выпуска: 2016
Продолжительность: 01:22:40
Перевод: Не требуется
Субтитры: нет
Оригинальная аудиодорожка: русский
    -Режиссер: Антон Бильжо
      -В ролях: Владимир Мишуков, Северия Янушаускайте, Максим Виторган, Андрей Бильжо
        -Описание: Питерский интеллигент Роман искал на Балтийском побережье тишины и вдохновения. А нашёл загадочную Хелену и влюбился бесповоротно. Вот только кто она - ожившая фантазия Романа или наваждение, ведущее к гибели?
        О чем не говорят мужчины? Куда приводят их мечты? «Рыба-мечта» - изысканная сказка для взрослых о губительной страсти. Фильм о борьбе двух начал, которые есть в каждом из нас - животного и человеческого.
          -Тип релиза: WEB-DL 1080p
          Контейнер: MKV
            -Видео: 1920x800 (2,40:1), 24 fps, MPEG-4 AVC, ~ 4460 kbps, 0.121 Bits/(Pixel*Frame)
              -Аудио: Russian: 48 kHz, AC3, 3/2 (L,C,R,l,r) + LFE ch, ~384 kbps avg

              MediaInfo

              Общее
              Уникальный идентификатор : 216521821663551311607009128918471195426 (0xA2E49603CD41CAA7BD5A6C5AF024BB22)
              Полное имя : D:\FISH.DREAM.WEB.DL.1080p.mkv
              Формат : Matroska
              Версия формата : Version 2
              Размер файла : 2,85 Гбайт
              Продолжительность : 1 ч. 22 м.
              Общий поток : 4942 Кбит/сек
              Дата кодирования : UTC 2017-09-11 08:27:35
              Программа кодирования : mkvmerge v5.6.0 ('Kenya Kane') built on May 27 2012 16:44:04
              Библиотека кодирования : libebml v1.2.3 + libmatroska v1.3.0
              Видео
              Идентификатор : 1
              Формат : AVC
              Формат/Информация : Advanced Video Codec
              Профиль формата : High@L4
              Параметр CABAC формата : Да
              Параметр RefFrames формата : 5 кадров
              Идентификатор кодека : V_MPEG4/ISO/AVC
              Продолжительность : 1 ч. 22 м.
              Битрейт : 4460 Кбит/сек
              Ширина : 1920 пикселей
              Высота : 800 пикселей
              Соотношение сторон : 2,40:1
              Режим частоты кадров : Постоянный
              Частота кадров : 24,000 кадра/сек
              Цветовое пространство : YUV
              Субдискретизация насыщенности : 4:2:0
              Битовая глубина : 8 бит
              Тип развёртки : Прогрессивная
              Бит/(Пиксели*Кадры) : 0.121
              Размер потока : 2,58 Гбайт (90%)
              Язык : Russian
              Default : Да
              Forced : Нет
              Цветовой диапазон : Limited
              Основные цвета : BT.709
              Характеристики трансфера : BT.709
              Коэффициенты матрицы : BT.709
              Аудио
              Идентификатор : 2
              Формат : AC-3
              Формат/Информация : Audio Coding 3
              Параметр Endianness формата : Big
              Идентификатор кодека : A_AC3
              Продолжительность : 1 ч. 22 м.
              Вид битрейта : Постоянный
              Битрейт : 384 Кбит/сек
              Каналы : 6 каналов
              Расположение каналов : Front: L C R, Side: L R, LFE
              Частота : 48,0 КГц
              Частота кадров : 31,250 кадров/сек (1536 SPF)
              Битовая глубина : 16 бит
              Метод сжатия : С потерями
              Размер потока : 227 Мбайт (8%)
              Язык : Russian
              ServiceKind/String : Complete Main
              Default : Да
              Forced : Нет
              Меню
              00:00:00.000 : en:1
              00:13:19.549 : en:2
              00:26:38.764 : en:3
              00:42:19.287 : en:4
              00:53:05.975 : en:5
              01:06:49.173 : en:6
              01:20:18.815 : en:7

              Скриншоты

              Вы не можете начинать темы
              Вы не можете отвечать на сообщения
              Вы не можете редактировать свои сообщения
              Вы не можете удалять свои сообщения
              Вы не можете голосовать в опросах
              Вы не можете прикреплять файлы к сообщениям
              Вы можете скачивать файлы
              !ВНИМАНИЕ!

              Сайт не предоставляет электронные версии произведений, а занимается лишь коллекционированием и каталогизацией ссылок, присылаемых и публикуемых на форуме нашими читателями. Если вы являетесь правообладателем какого-либо представленного материала и не желаете, чтобы ссылка на него находилась в нашем каталоге, свяжитесь с нами, и мы незамедлительно удалим ее. Файлы для обмена на трекере предоставлены пользователями сайта, и администрация не несет ответственности за их содержание. Просьба не заливать файлы, защищенные авторскими правами, а также файлы нелегального содержания!

              Искали программы, игры, дополнения, музыка mp3, аниме, аудио книги, журналы? Добро пожаловать на свободный торрент трекер Torrents, у нас можно скачать бесплатно, без смс и регистрации и прочих ограничений лучшие, отборные сборки программ, игр. Скачать торрентом не составит труда даже не опытному пользователю. Раздачи ежедневно обновляются, только лучшие и качественные раздачи, подробные описания и скриншоты. Огромная коллекция программ для работы со звуком, графикой, дизайном, а так же множество плагинов и инструментов к ним с подробной инструкцией и рекомендациями. Прошивки для навигаторов, карты. Разнообразные игры, для Windows, Linux. В коллекцие есть и старые игры любых жанров, Rpg, Action, Shooter, strategy Множество дополнений, модификаций, сценариев для популярных игр в жанре экш, рпг, гонки, стратегии, логические игры. Множество аддонов и сценариев для Microsoft Flight Simulator Большая коллекция книг, учебников. Если нет возможности купить печатное издание - смело скачивайте цифровую версию книги или, быть может, журнала. Не любите читать - можно загрузить бесплатно аудикнигу. Для веб дизайнеров и программистов так же найдется множество специализированного софта, таких как: редакторы с подсветкой, среды программирования, компоненты, системы управления базами данных, разнообразные скрипты и шаблоны. Не так давно у нас появился материал для автолюбителей и владельцев мото - оригинальные и неоригинальные каталоги запчастей, книги и журналы по ремонту и обслуживанию, видеоуроки, статьи по чип тюнингу, прошивкам. Процедура получения контента элементарная, достаточно просто скачать торрент файл и добавить его в загрузку в вашем торрент клиенте. Если у вас нет специального торрент клиента, вы можете его скачать у нас.