(Electro, IDM, breakbeat) [CD] VA - Electronic Imperiah - Electro Beats - 2002, FLAC (tracks+.cue), lossless 

Цитировать
Electronic Imperiah - Electro Beats
Жанр: Electro, IDM, breakbeat
Носитель: CD
Страна-производитель диска (релиза): Украина
Год издания: 2002
Издатель (лейбл): Moon Records
Номер по каталогу: MNCD-203
Аудиокодек: FLAC (*.flac)
Тип рипа: tracks+.cue
Битрейт аудио: lossless
Продолжительность: 79:09
Источник (релизер): Свой рип
Наличие сканов в содержимом раздачи: да
Треклист:
01. Mandroid - Driving In My Turbo Mini (4:46)
02. Little Computer People - I Am (7:10)
03. The Other People Place - Lifestyles Of The Casual (5:27)
04. Elektroids - Perpetual Motion (6:25)
05. Motec Registered - Soundfile No. 3 (7:16)
06. Sponky - 3one (4:58)
07. Lo-fi - Lo-fi (6:17)
08. Quarx - Mobilechtro (4:29)
09. Christian Berg - Stereotype (6:03)
10. Boris Devider - Terminal City (6:08)
11. Studio - In The Studio (5:59)
12. Informer - Random Jazz (2:48)
13. DMX Krew - I Am All Al DMX Krew (4:16)
14. Lid & Jaz - Electronic (3:22)
15. Electric Style - Break Dance Sensation (3:45)

Лог создания рипа

Exact Audio Copy V1.3 from 2. September 2016
EAC extraction logfile from 2. February 2018, 12:40
Various / Electronic Imperiah - Electro Beats
Used drive : TEAC CD-W524E Adapter: 1 ID: 2
Read mode : SecureUtilize accurate stream : YesDefeat audio cache : YesMake use of C2 pointers : No
Read offset correction : 686Overread into Lead-In and Lead-Out : NoFill up missing offset samples with silence : YesDelete leading and trailing silent blocks : NoNull samples used in CRC calculations : YesUsed interface : Native Win32 interface for Win NT & 2000Gap handling : Appended to previous track
Used output format : Internal WAV RoutinesSample format : 44.100 Hz; 16 Bit; Stereo
TOC of the extracted CD
Track | Start | Length | Start sector | End sector --------------------------------------------------------- 1 | 0:00.00 | 4:46.26 | 0 | 21475 2 | 4:46.26 | 7:09.41 | 21476 | 53691 3 | 11:55.67 | 5:27.23 | 53692 | 78239 4 | 17:23.15 | 6:24.38 | 78240 | 107077 5 | 23:47.53 | 7:15.72 | 107078 | 139774 6 | 31:03.50 | 4:57.72 | 139775 | 162121 7 | 36:01.47 | 6:17.09 | 162122 | 190405 8 | 42:18.56 | 4:29.26 | 190406 | 210606 9 | 46:48.07 | 6:03.30 | 210607 | 237861 10 | 52:51.37 | 6:08.00 | 237862 | 265461 11 | 58:59.37 | 5:58.54 | 265462 | 292365 12 | 64:58.16 | 2:48.29 | 292366 | 304994 13 | 67:46.45 | 4:15.39 | 304995 | 324158 14 | 72:02.09 | 3:21.38 | 324159 | 339271 15 | 75:23.47 | 3:45.17 | 339272 | 356163
Track 1
Filename I:\CD_lossless_my\VA - Electronic Imperiah - Electro beats (2002)\01. Mandroid - Driving In My Turbo Mini.wav
Pre-gap length 0:00:02.00
Peak level 100.0 % Extraction speed 2.9 X Track quality 100.0 % Test CRC EC5091E9 Copy CRC EC5091E9 Track not present in AccurateRip database Copy OK
Track 2
Filename I:\CD_lossless_my\VA - Electronic Imperiah - Electro beats (2002)\02. Little Computer People - I Am.wav
Peak level 100.0 % Extraction speed 3.4 X Track quality 100.0 % Test CRC 7CA8CAB8 Copy CRC 7CA8CAB8 Track not present in AccurateRip database Copy OK
Track 3
Filename I:\CD_lossless_my\VA - Electronic Imperiah - Electro beats (2002)\03. The Other People Place - Lifestyles Of The Casual.wav
Peak level 99.8 % Extraction speed 2.8 X Track quality 99.9 % Test CRC 90812D7A Copy CRC 90812D7A Track not present in AccurateRip database Copy OK
Track 4
Filename I:\CD_lossless_my\VA - Electronic Imperiah - Electro beats (2002)\04. Elektroids - Perpetual Motion.wav
Peak level 99.2 % Extraction speed 4.0 X Track quality 100.0 % Test CRC FD1F33DF Copy CRC FD1F33DF Track not present in AccurateRip database Copy OK
Track 5
Filename I:\CD_lossless_my\VA - Electronic Imperiah - Electro beats (2002)\05. Motec Registered - Soundfile No. 3.wav
Peak level 100.0 % Extraction speed 4.3 X Track quality 100.0 % Test CRC 4C143EFB Copy CRC 4C143EFB Track not present in AccurateRip database Copy OK
Track 6
Filename I:\CD_lossless_my\VA - Electronic Imperiah - Electro beats (2002)\06. Sponky - 3one.wav
Peak level 100.0 % Extraction speed 4.4 X Track quality 100.0 % Test CRC CE3AB9E2 Copy CRC CE3AB9E2 Track not present in AccurateRip database Copy OK
Track 7
Filename I:\CD_lossless_my\VA - Electronic Imperiah - Electro beats (2002)\07. Lo-fi - Lo-fi.wav
Peak level 100.0 % Extraction speed 3.6 X Track quality 99.9 % Test CRC 2921FE91 Copy CRC 2921FE91 Track not present in AccurateRip database Copy OK
Track 8
Filename I:\CD_lossless_my\VA - Electronic Imperiah - Electro beats (2002)\08. Quarx - Mobilechtro.wav
Peak level 100.0 % Extraction speed 4.8 X Track quality 100.0 % Test CRC 01070685 Copy CRC 01070685 Track not present in AccurateRip database Copy OK
Track 9
Filename I:\CD_lossless_my\VA - Electronic Imperiah - Electro beats (2002)\09. Christian Berg - Stereotype.wav
Peak level 99.0 % Extraction speed 5.0 X Track quality 100.0 % Test CRC 446259F6 Copy CRC 446259F6 Track not present in AccurateRip database Copy OK
Track 10
Filename I:\CD_lossless_my\VA - Electronic Imperiah - Electro beats (2002)\10. Boris Devider - Terminal City.wav
Peak level 100.0 % Extraction speed 5.4 X Track quality 100.0 % Test CRC 9A0E6213 Copy CRC 9A0E6213 Track not present in AccurateRip database Copy OK
Track 11
Filename I:\CD_lossless_my\VA - Electronic Imperiah - Electro beats (2002)\11. Studio - In The Studio.wav
Peak level 100.0 % Extraction speed 5.6 X Track quality 100.0 % Test CRC 1F64123D Copy CRC 1F64123D Track not present in AccurateRip database Copy OK
Track 12
Filename I:\CD_lossless_my\VA - Electronic Imperiah - Electro beats (2002)\12. Informer - Random Jazz.wav
Peak level 100.0 % Extraction speed 5.1 X Track quality 100.0 % Test CRC 099FF238 Copy CRC 099FF238 Track not present in AccurateRip database Copy OK
Track 13
Filename I:\CD_lossless_my\VA - Electronic Imperiah - Electro beats (2002)\13. DMX Krew - I Am All Al DMX Krew.wav
Peak level 100.0 % Extraction speed 5.6 X Track quality 100.0 % Test CRC C31493CF Copy CRC C31493CF Track not present in AccurateRip database Copy OK
Track 14
Filename I:\CD_lossless_my\VA - Electronic Imperiah - Electro beats (2002)\14. Lid & Jaz - Electronic.wav
Peak level 98.8 % Extraction speed 3.1 X Track quality 99.9 % Test CRC 75FD46A2 Copy CRC 75FD46A2 Track not present in AccurateRip database Copy OK
Track 15
Filename I:\CD_lossless_my\VA - Electronic Imperiah - Electro beats (2002)\15. Electric Style - Break Dance Sensation.wav
Peak level 98.4 % Extraction speed 5.8 X Track quality 100.0 % Test CRC 137EDADB Copy CRC 137EDADB Track not present in AccurateRip database Copy OK
None of the tracks are present in the AccurateRip database
No errors occurred
End of status report
---- CUETools DB Plugin V2.1.6
[CTDB TOCID: JqGK90vKq7Yo7ElUK_Y461U5jNo-] disk not present in databaseSubmit result: JqGK90vKq7Yo7ElUK_Y461U5jNo- has been uploaded
==== Log checksum 82DE6CC0BB43679F4DCAD6ECC1D1954068B529C667B24A13ED4741479709FEBD ====

Содержание индексной карты (.CUE)

REM GENRE ElectronicREM DATE 2002REM DISCID C9128C0FREM COMMENT "ExactAudioCopy v1.3"PERFORMER "Various"TITLE "Electronic Imperiah - Electro Beats"REM COMPOSER ""FILE "01. Mandroid - Driving In My Turbo Mini.flac" WAVE  TRACK 01 AUDIO    TITLE "Driving In My Turbo Mini"    PERFORMER "Mandroid"    REM COMPOSER ""    INDEX 01 00:00:00FILE "02. Little Computer People - I Am.flac" WAVE  TRACK 02 AUDIO    TITLE "I Am"    PERFORMER "Little Computer People"    REM COMPOSER ""    INDEX 01 00:00:00FILE "03. The Other People Place - Lifestyles Of The Casual.flac" WAVE  TRACK 03 AUDIO    TITLE "Lifestyles Of The Casual"    PERFORMER "The Other People Place"    REM COMPOSER ""    INDEX 01 00:00:00FILE "04. Elektroids - Perpetual Motion.flac" WAVE  TRACK 04 AUDIO    TITLE "Perpetual Motion"    PERFORMER "Elektroids"    REM COMPOSER ""    INDEX 01 00:00:00FILE "05. Motec Registered - Soundfile No. 3.flac" WAVE  TRACK 05 AUDIO    TITLE "Soundfile No. 3"    PERFORMER "Motec Registered"    REM COMPOSER ""    INDEX 01 00:00:00FILE "06. Sponky - 3one.flac" WAVE  TRACK 06 AUDIO    TITLE "3one"    PERFORMER "Sponky"    REM COMPOSER ""    INDEX 01 00:00:00FILE "07. Lo-fi - Lo-fi.flac" WAVE  TRACK 07 AUDIO    TITLE "Lo-fi"    PERFORMER "Lo-fi"    REM COMPOSER ""    INDEX 01 00:00:00FILE "08. Quarx - Mobilechtro.flac" WAVE  TRACK 08 AUDIO    TITLE "Mobilechtro"    PERFORMER "Quarx"    REM COMPOSER ""    INDEX 01 00:00:00FILE "09. Christian Berg - Stereotype.flac" WAVE  TRACK 09 AUDIO    TITLE "Stereotype"    PERFORMER "Christian Berg"    REM COMPOSER ""    INDEX 01 00:00:00FILE "10. Boris Devider - Terminal City.flac" WAVE  TRACK 10 AUDIO    TITLE "Terminal City"    PERFORMER "Boris Devider"    REM COMPOSER ""    INDEX 01 00:00:00FILE "11. Studio - In The Studio.flac" WAVE  TRACK 11 AUDIO    TITLE "In The Studio"    PERFORMER "Studio"    REM COMPOSER ""    INDEX 01 00:00:00FILE "12. Informer - Random Jazz.flac" WAVE  TRACK 12 AUDIO    TITLE "Random Jazz"    PERFORMER "Informer"    REM COMPOSER ""    INDEX 01 00:00:00FILE "13. DMX Krew -  I Am All Al DMX Krew.flac" WAVE  TRACK 13 AUDIO    TITLE " I Am All Al DMX Krew"    PERFORMER "DMX Krew"    REM COMPOSER ""    INDEX 01 00:00:00FILE "14. Lid & Jaz - Electronic.flac" WAVE  TRACK 14 AUDIO    TITLE "Electronic"    PERFORMER "Lid & Jaz"    REM COMPOSER ""    INDEX 01 00:00:00FILE "15. Electric Style - Break Dance Sensation.flac" WAVE  TRACK 15 AUDIO    TITLE "Break Dance Sensation"    PERFORMER "Electric Style"    REM COMPOSER ""    INDEX 01 00:00:00
Вы не можете начинать темы
Вы не можете отвечать на сообщения
Вы не можете редактировать свои сообщения
Вы не можете удалять свои сообщения
Вы не можете голосовать в опросах
Вы не можете прикреплять файлы к сообщениям
Вы можете скачивать файлы
!ВНИМАНИЕ!

Сайт не предоставляет электронные версии произведений, а занимается лишь коллекционированием и каталогизацией ссылок, присылаемых и публикуемых на форуме нашими читателями. Если вы являетесь правообладателем какого-либо представленного материала и не желаете, чтобы ссылка на него находилась в нашем каталоге, свяжитесь с нами, и мы незамедлительно удалим ее. Файлы для обмена на трекере предоставлены пользователями сайта, и администрация не несет ответственности за их содержание. Просьба не заливать файлы, защищенные авторскими правами, а также файлы нелегального содержания!

Искали программы, игры, дополнения, музыка mp3, аниме, аудио книги, журналы? Добро пожаловать на свободный торрент трекер Torrents, у нас можно скачать бесплатно, без смс и регистрации и прочих ограничений лучшие, отборные сборки программ, игр. Скачать торрентом не составит труда даже не опытному пользователю. Раздачи ежедневно обновляются, только лучшие и качественные раздачи, подробные описания и скриншоты. Огромная коллекция программ для работы со звуком, графикой, дизайном, а так же множество плагинов и инструментов к ним с подробной инструкцией и рекомендациями. Прошивки для навигаторов, карты. Разнообразные игры, для Windows, Linux. В коллекцие есть и старые игры любых жанров, Rpg, Action, Shooter, strategy Множество дополнений, модификаций, сценариев для популярных игр в жанре экш, рпг, гонки, стратегии, логические игры. Множество аддонов и сценариев для Microsoft Flight Simulator Большая коллекция книг, учебников. Если нет возможности купить печатное издание - смело скачивайте цифровую версию книги или, быть может, журнала. Не любите читать - можно загрузить бесплатно аудикнигу. Для веб дизайнеров и программистов так же найдется множество специализированного софта, таких как: редакторы с подсветкой, среды программирования, компоненты, системы управления базами данных, разнообразные скрипты и шаблоны. Не так давно у нас появился материал для автолюбителей и владельцев мото - оригинальные и неоригинальные каталоги запчастей, книги и журналы по ремонту и обслуживанию, видеоуроки, статьи по чип тюнингу, прошивкам. Процедура получения контента элементарная, достаточно просто скачать торрент файл и добавить его в загрузку в вашем торрент клиенте. Если у вас нет специального торрент клиента, вы можете его скачать у нас.