(Freestyle) Corina - Corina - 1991, APE (image+.cue) lossless 

Цитировать
Corina / Corina
Жанр: Freestyle
Страна-производитель диска: USA
Год издания диска: 1991
Издатель (лейбл): Cutting Records/ATCO
Аудио кодек: APE (*.ape)
Тип рипа: image+.cue
Битрейт аудио: lossless
Продолжительность: 47:54
Источник (релизер): Роман1900
Наличие сканов в содержимом раздачи: да
Треклист:
1.Temptation
2.Now That Yor`re Gone
3.If You Believe
4.Searching
5.Whispers
6.No Excuses
7.It` My Live
8.I`ve Got It In For You(Boy/Love)
9.When I Miss You
10.Don`t Walk Away

Лог создания рипа

Exact Audio Copy V0.99 prebeta 5 from 4. May 2009
Отчёт EAC об извлечении, выполненном 31. октября 2010, 0:11
Corina, Corina / Corina, Corina
Дисковод: HL-DT-STDVDRAM GT30N Adapter: 2 ID: 0
Режим чтения : ДостоверностьИспользование точного потока : ДаОтключение кэша аудио : ДаИспользование указателей C2 : Нет
Коррекция смещения при чтении : 103Способность читать области Lead-in и Lead-out : НетЗаполнение пропущенных сэмплов тишиной : ДаУдаление блоков с тишиной в начале и конце : НетПри вычислениях CRC использовались нулевые сэмплы : ДаИнтерфейс : Встроенный Win32-интерфейс для Win NT/2000
Выходной формат : Внутренние WAV-операцииФормат сэмплов : 44.100 Гц; 16 бит; стерео
TOC извлечённого CD
Трек | Старт | Длительность | Начальный сектор | Конечный сектор --------------------------------------------------------------------- 1 | 0:00.32 | 4:01.40 | 32 | 18146 2 | 4:01.72 | 4:33.18 | 18147 | 38639 3 | 8:35.15 | 4:50.17 | 38640 | 60406 4 | 13:25.32 | 5:03.43 | 60407 | 83174 5 | 18:29.00 | 4:47.67 | 83175 | 104766 6 | 23:16.67 | 5:29.65 | 104767 | 129506 7 | 28:46.57 | 4:42.05 | 129507 | 150661 8 | 33:28.62 | 4:25.20 | 150662 | 170556 9 | 37:54.07 | 5:02.33 | 170557 | 193239 10 | 42:56.40 | 4:57.62 | 193240 | 215576
Характеристики диапазона извлечения и сообщения об ошибках
Выбранный диапазон
Имя файла C:\Users\Ромарио\Music\Corina, Corina - Corina, Corina.wav
Пиковый уровень 100.0 % Качество диапазона 99.9 % CRC копии 6F3984F5 Копирование... OK
Ошибок не произошло
AccurateRip: сводка
Трек 1 точное извлечение (доверие 8) [073CE0E4]Трек 2 точное извлечение (доверие 8) [8D53E409]Трек 3 точное извлечение (доверие 8) [1F2190BD]Трек 4 точное извлечение (доверие 9) [F8CE6A2C]Трек 5 точное извлечение (доверие 8) [74CE7296]Трек 6 точное извлечение (доверие 8) [CE546E88]Трек 7 точное извлечение (доверие 8) [D55E45CE]Трек 8 точное извлечение (доверие 9) [64C071D6]Трек 9 точное извлечение (доверие 7) [E697AFFF]Трек 10 точное извлечение (доверие 7) [B63C9E58]
Все треки извлечены точно
Конец отчёта
Вы не можете начинать темы
Вы не можете отвечать на сообщения
Вы не можете редактировать свои сообщения
Вы не можете удалять свои сообщения
Вы не можете голосовать в опросах
Вы не можете прикреплять файлы к сообщениям
Вы можете скачивать файлы
!ВНИМАНИЕ!

Сайт не предоставляет электронные версии произведений, а занимается лишь коллекционированием и каталогизацией ссылок, присылаемых и публикуемых на форуме нашими читателями. Если вы являетесь правообладателем какого-либо представленного материала и не желаете, чтобы ссылка на него находилась в нашем каталоге, свяжитесь с нами, и мы незамедлительно удалим ее. Файлы для обмена на трекере предоставлены пользователями сайта, и администрация не несет ответственности за их содержание. Просьба не заливать файлы, защищенные авторскими правами, а также файлы нелегального содержания!

Искали программы, игры, дополнения, музыка mp3, аниме, аудио книги, журналы? Добро пожаловать на свободный торрент трекер Torrents, у нас можно скачать бесплатно, без смс и регистрации и прочих ограничений лучшие, отборные сборки программ, игр. Скачать торрентом не составит труда даже не опытному пользователю. Раздачи ежедневно обновляются, только лучшие и качественные раздачи, подробные описания и скриншоты. Огромная коллекция программ для работы со звуком, графикой, дизайном, а так же множество плагинов и инструментов к ним с подробной инструкцией и рекомендациями. Прошивки для навигаторов, карты. Разнообразные игры, для Windows, Linux. В коллекцие есть и старые игры любых жанров, Rpg, Action, Shooter, strategy Множество дополнений, модификаций, сценариев для популярных игр в жанре экш, рпг, гонки, стратегии, логические игры. Множество аддонов и сценариев для Microsoft Flight Simulator Большая коллекция книг, учебников. Если нет возможности купить печатное издание - смело скачивайте цифровую версию книги или, быть может, журнала. Не любите читать - можно загрузить бесплатно аудикнигу. Для веб дизайнеров и программистов так же найдется множество специализированного софта, таких как: редакторы с подсветкой, среды программирования, компоненты, системы управления базами данных, разнообразные скрипты и шаблоны. Не так давно у нас появился материал для автолюбителей и владельцев мото - оригинальные и неоригинальные каталоги запчастей, книги и журналы по ремонту и обслуживанию, видеоуроки, статьи по чип тюнингу, прошивкам. Процедура получения контента элементарная, достаточно просто скачать торрент файл и добавить его в загрузку в вашем торрент клиенте. Если у вас нет специального торрент клиента, вы можете его скачать у нас.