(Gothic Metal) [CD] Gloom - Catharsis - 2017, FLAC (image+.cue), lossless 

Цитировать
Gloom - Catharsis



• Жанр: Gothic Metal
• Носитель: CD
• Год издания: 2017
• Издатель (номер по каталогу) Metal Age (MAP 112)
• Страна исполнителя (группы): Slovakia
• Аудиокодек: FLAC (*.flac)
• Тип рипа: image+.cue
• Продолжительность: 00:34:07
• Источник (релизер): whirlzzumm ®
• Наличие сканов: нет

01. Souls Walk Apart {00:03:34}
02. Heart Dead Remains {00:04:53}
03. Lovesong {00:03:23}
04. Lillyann {00:05:24}
05. No One Ever {00:03:00}
06. Fatal Trust {00:03:56}
07. Catharsis {00:02:46}
08. The Last Chapter {00:07:07}

-
-

Лог создания рипа

Exact Audio Copy V1.0 beta 3 from 29. August 2011
Отчёт EAC об извлечении, выполненном 7. октября 2017, 17:16
Catharsis / Gloom
Дисковод: ASUS DRW-24D5MT Adapter: 0 ID: 0
Режим чтения : ДостоверностьИспользование точного потока : ДаОтключение кэша аудио : ДаИспользование указателей C2 : Нет
Коррекция смещения при чтении : 6Способность читать области Lead-in и Lead-out : НетЗаполнение пропущенных сэмплов тишиной : ДаУдаление блоков с тишиной в начале и конце : НетПри вычислениях CRC использовались нулевые сэмплы : ДаИнтерфейс : Встроенный Win32-интерфейс для Win NT/2000
Выходной формат : Пользовательский кодировщикВыбранный битрейт : 1024 kBit/sКачество : ВысокийДобавление ID3-тега : НетУтилита сжатия : C:\Program Files (x86)\FLAC\flac.exeДополнительные параметры : -V -8 -T "Date=%year%" -T "Genre=%genre%" %source%
TOC извлечённого CD
Трек | Старт | Длительность | Начальный сектор | Конечный сектор --------------------------------------------------------------------- 1 | 0:00.00 | 3:35.68 | 0 | 16192 2 | 3:35.68 | 4:54.00 | 16193 | 38242 3 | 8:29.68 | 3:25.49 | 38243 | 53666 4 | 11:55.42 | 5:25.60 | 53667 | 78101 5 | 17:21.27 | 3:02.59 | 78102 | 91810 6 | 20:24.11 | 3:58.68 | 91811 | 109728 7 | 24:23.04 | 2:47.11 | 109729 | 122264 8 | 27:10.15 | 7:08.08 | 122265 | 154372
Характеристики диапазона извлечения и сообщения об ошибках
Выбранный диапазон
Имя файла F:\FLAC 1 whirlzzumm\Catharsis - Gloom.wav
Пиковый уровень 100.0 % Скорость извлечения 1.6 X Качество диапазона 100.0 % CRC теста D64753F7 CRC копии D64753F7 Копирование... OK
Ошибок не произошло
AccurateRip: сводка
Трек 1 отсутствует в базе данныхТрек 2 отсутствует в базе данныхТрек 3 отсутствует в базе данныхТрек 4 отсутствует в базе данныхТрек 5 отсутствует в базе данныхТрек 6 отсутствует в базе данныхТрек 7 отсутствует в базе данныхТрек 8 отсутствует в базе данных
Ни одного трека нет в базе AccurateRip
Конец отчёта
==== Контрольная сумма отчёта 5EAB92F8E717F961F3A75274FB103C6B88D9650181715D7BDC2DBF184E35EAB9 ====

Содержание индексной карты

REM GENRE "Gothic Metal"REM DATE 2017REM DISCID 51080A08REM COMMENT "ExactAudioCopy v1.0b3"PERFORMER "Catharsis"TITLE "Gloom "FILE "Catharsis - Gloom.flac" WAVE  TRACK 01 AUDIO    TITLE "Souls Walk Apart"    PERFORMER "Catharsis"    INDEX 01 00:00:00  TRACK 02 AUDIO    TITLE "Heart Dead Remains"    PERFORMER "Catharsis"    INDEX 00 03:34:69    INDEX 01 03:35:68  TRACK 03 AUDIO    TITLE "Lovesong"    PERFORMER "Catharsis"    INDEX 00 08:28:69    INDEX 01 08:29:68  TRACK 04 AUDIO    TITLE "Lillyann"    PERFORMER "Catharsis"    INDEX 00 11:53:43    INDEX 01 11:55:42  TRACK 05 AUDIO    TITLE "No One Ever"    PERFORMER "Catharsis"    INDEX 00 17:20:28    INDEX 01 17:21:27  TRACK 06 AUDIO    TITLE "Fatal Trust"    PERFORMER "Catharsis"    INDEX 00 20:22:12    INDEX 01 20:24:11  TRACK 07 AUDIO    TITLE "Catharsis"    PERFORMER "Catharsis"    INDEX 00 24:21:05    INDEX 01 24:23:04  TRACK 08 AUDIO    TITLE "The Last Chapter"    PERFORMER "Catharsis"    INDEX 00 27:09:16    INDEX 01 27:10:15

Лог проверки качества

-----------------------
DON'T MODIFY THIS FILE
-----------------------
PERFORMER: auCDtect Task Manager, ver. 1.5.1RC3 build 1.5.1.4Copyright (c) 2008-2010 y-soft. All rights reservedhttp://y-soft.org
ANALYZER: auCDtect: CD records authenticity detector, version 0.8.2Copyright (c) 2004 Oleg Berngardt. All rights reserved.Copyright (c) 2004 Alexander Djourik. All rights reserved.
FILE: Catharsis - Gloom.flac Size: 254515152 Hash: 24347EDD544D5E0570F84EED60BC2620 Accuracy: -m0 Conclusion: CDDA 100% Signature: C6FF7E7BBAA9435F7E82C147B143B36665198760

Скриншот спектра частот

--
Вы не можете начинать темы
Вы не можете отвечать на сообщения
Вы не можете редактировать свои сообщения
Вы не можете удалять свои сообщения
Вы не можете голосовать в опросах
Вы не можете прикреплять файлы к сообщениям
Вы можете скачивать файлы
!ВНИМАНИЕ!

Сайт не предоставляет электронные версии произведений, а занимается лишь коллекционированием и каталогизацией ссылок, присылаемых и публикуемых на форуме нашими читателями. Если вы являетесь правообладателем какого-либо представленного материала и не желаете, чтобы ссылка на него находилась в нашем каталоге, свяжитесь с нами, и мы незамедлительно удалим ее. Файлы для обмена на трекере предоставлены пользователями сайта, и администрация не несет ответственности за их содержание. Просьба не заливать файлы, защищенные авторскими правами, а также файлы нелегального содержания!

Искали программы, игры, дополнения, музыка mp3, аниме, аудио книги, журналы? Добро пожаловать на свободный торрент трекер Torrents, у нас можно скачать бесплатно, без смс и регистрации и прочих ограничений лучшие, отборные сборки программ, игр. Скачать торрентом не составит труда даже не опытному пользователю. Раздачи ежедневно обновляются, только лучшие и качественные раздачи, подробные описания и скриншоты. Огромная коллекция программ для работы со звуком, графикой, дизайном, а так же множество плагинов и инструментов к ним с подробной инструкцией и рекомендациями. Прошивки для навигаторов, карты. Разнообразные игры, для Windows, Linux. В коллекцие есть и старые игры любых жанров, Rpg, Action, Shooter, strategy Множество дополнений, модификаций, сценариев для популярных игр в жанре экш, рпг, гонки, стратегии, логические игры. Множество аддонов и сценариев для Microsoft Flight Simulator Большая коллекция книг, учебников. Если нет возможности купить печатное издание - смело скачивайте цифровую версию книги или, быть может, журнала. Не любите читать - можно загрузить бесплатно аудикнигу. Для веб дизайнеров и программистов так же найдется множество специализированного софта, таких как: редакторы с подсветкой, среды программирования, компоненты, системы управления базами данных, разнообразные скрипты и шаблоны. Не так давно у нас появился материал для автолюбителей и владельцев мото - оригинальные и неоригинальные каталоги запчастей, книги и журналы по ремонту и обслуживанию, видеоуроки, статьи по чип тюнингу, прошивкам. Процедура получения контента элементарная, достаточно просто скачать торрент файл и добавить его в загрузку в вашем торрент клиенте. Если у вас нет специального торрент клиента, вы можете его скачать у нас.