(Symphonic Gothic/Folk Metal) [CD] Midnattsol - The Aftermath (Limited Edition) - 2018, FLAC (image+.cue), lossless 

Цитировать
Midnattsol / The Aftermath (Limited Edition)
Жанр: Symphonic Gothic/Folk Metal
Носитель: CD
Страна-производитель диска (релиза): Germany
Год издания: 2018
Издатель (лейбл): Napalm Records Handels GmbH
Номер по каталогу: NPR 784 DP
Страна исполнителя (группы): Germany
Аудиокодек: FLAC (*.flac)
Тип рипа: image+.cue
Битрейт аудио: lossless
Продолжительность: 53:28
Источник (релизер): ungern666
Наличие сканов в содержимом раздачи: да
Треклист:
01. The Purple Sky 06:06
02. Syns Sang 05:02
03. Vem Kan Segla 03:48
04. Ikje Glem Meg 04:23
05. Herr Mannelig 09:06
06. The Aftermath 05:18
07. The Unveiled Truth 03:58
08. Evaluation Of Time 06:44
09. Forsaken 06:06
Bonus Track
10. Eitrdropar 02:59

Лог создания рипа

Exact Audio Copy V1.3 from 2. September 2016
EAC extraction logfile from 23. June 2018, 18:57
Midnattsol / The Aftermath (Limited Edition)
Used drive : HP DVD Writer 1170d Adapter: 1 ID: 1
Read mode : SecureUtilize accurate stream : YesDefeat audio cache : YesMake use of C2 pointers : No
Read offset correction : 6Overread into Lead-In and Lead-Out : NoFill up missing offset samples with silence : YesDelete leading and trailing silent blocks : NoNull samples used in CRC calculations : YesUsed interface : Native Win32 interface for Win NT & 2000
Used output format : User Defined EncoderSelected bitrate : 1024 kBit/sQuality : HighAdd ID3 tag : NoCommand line compressor : C:\Program Files (x86)\Exact Audio Copy\Flac\flac.exeAdditional command line options : -V -8 -T "Date=%year%" -T "Genre=%genre%" %source%
TOC of the extracted CD
Track | Start | Length | Start sector | End sector --------------------------------------------------------- 1 | 0:00.00 | 6:06.00 | 0 | 27449 2 | 6:06.00 | 5:01.47 | 27450 | 50071 3 | 11:07.47 | 3:47.41 | 50072 | 67137 4 | 14:55.13 | 4:22.53 | 67138 | 86840 5 | 19:17.66 | 9:05.60 | 86841 | 127775 6 | 28:23.51 | 5:17.74 | 127776 | 151624 7 | 33:41.50 | 3:57.72 | 151625 | 169471 8 | 37:39.47 | 6:44.26 | 169472 | 199797 9 | 44:23.73 | 6:05.54 | 199798 | 227226 10 | 50:29.52 | 2:58.71 | 227227 | 240647
Range status and errors
Selected range
Filename C:\EAC\ungern666\Midnattsol - The Aftermath (Limited Edition).wav
Peak level 97.7 % Extraction speed 6.9 X Range quality 100.0 % Test CRC 98F6C9BF Copy CRC 98F6C9BF Copy OK
No errors occurred
AccurateRip summary
Track 1 accurately ripped (confidence 3) [EADD8BA8] (AR v2)Track 2 accurately ripped (confidence 3) [43EE9339] (AR v2)Track 3 accurately ripped (confidence 3) [74B237DD] (AR v2)Track 4 accurately ripped (confidence 3) [6401DEA8] (AR v2)Track 5 accurately ripped (confidence 3) [087886DD] (AR v2)Track 6 accurately ripped (confidence 3) [9B036D28] (AR v2)Track 7 accurately ripped (confidence 3) [54BA4E89] (AR v2)Track 8 accurately ripped (confidence 3) [5782749C] (AR v2)Track 9 accurately ripped (confidence 3) [25CEF07C] (AR v2)Track 10 accurately ripped (confidence 3) [1AF02734] (AR v2)
All tracks accurately ripped
End of status report
---- CUETools DB Plugin V2.1.6
[CTDB TOCID: oJhxe6yucHhOx7E3yJukO05TLxQ-] foundSubmit result: oJhxe6yucHhOx7E3yJukO05TLxQ- has been confirmedTrack | CTDB Status 1 | (4/4) Accurately ripped 2 | (4/4) Accurately ripped 3 | (4/4) Accurately ripped 4 | (4/4) Accurately ripped 5 | (4/4) Accurately ripped 6 | (4/4) Accurately ripped 7 | (4/4) Accurately ripped 8 | (4/4) Accurately ripped 9 | (4/4) Accurately ripped 10 | (4/4) Accurately ripped
==== Log checksum 144B4752D7E32B82A85228F6116D49AA5BFB91E27D389A64E65088F460E4C35D ====
-- -Материал предназначен для ознакомления!
Вы не можете начинать темы
Вы не можете отвечать на сообщения
Вы не можете редактировать свои сообщения
Вы не можете удалять свои сообщения
Вы не можете голосовать в опросах
Вы не можете прикреплять файлы к сообщениям
Вы можете скачивать файлы
!ВНИМАНИЕ!

Сайт не предоставляет электронные версии произведений, а занимается лишь коллекционированием и каталогизацией ссылок, присылаемых и публикуемых на форуме нашими читателями. Если вы являетесь правообладателем какого-либо представленного материала и не желаете, чтобы ссылка на него находилась в нашем каталоге, свяжитесь с нами, и мы незамедлительно удалим ее. Файлы для обмена на трекере предоставлены пользователями сайта, и администрация не несет ответственности за их содержание. Просьба не заливать файлы, защищенные авторскими правами, а также файлы нелегального содержания!

Искали программы, игры, дополнения, музыка mp3, аниме, аудио книги, журналы? Добро пожаловать на свободный торрент трекер Torrents, у нас можно скачать бесплатно, без смс и регистрации и прочих ограничений лучшие, отборные сборки программ, игр. Скачать торрентом не составит труда даже не опытному пользователю. Раздачи ежедневно обновляются, только лучшие и качественные раздачи, подробные описания и скриншоты. Огромная коллекция программ для работы со звуком, графикой, дизайном, а так же множество плагинов и инструментов к ним с подробной инструкцией и рекомендациями. Прошивки для навигаторов, карты. Разнообразные игры, для Windows, Linux. В коллекцие есть и старые игры любых жанров, Rpg, Action, Shooter, strategy Множество дополнений, модификаций, сценариев для популярных игр в жанре экш, рпг, гонки, стратегии, логические игры. Множество аддонов и сценариев для Microsoft Flight Simulator Большая коллекция книг, учебников. Если нет возможности купить печатное издание - смело скачивайте цифровую версию книги или, быть может, журнала. Не любите читать - можно загрузить бесплатно аудикнигу. Для веб дизайнеров и программистов так же найдется множество специализированного софта, таких как: редакторы с подсветкой, среды программирования, компоненты, системы управления базами данных, разнообразные скрипты и шаблоны. Не так давно у нас появился материал для автолюбителей и владельцев мото - оригинальные и неоригинальные каталоги запчастей, книги и журналы по ремонту и обслуживанию, видеоуроки, статьи по чип тюнингу, прошивкам. Процедура получения контента элементарная, достаточно просто скачать торрент файл и добавить его в загрузку в вашем торрент клиенте. Если у вас нет специального торрент клиента, вы можете его скачать у нас.