(Various Metal) [CD] VA - All For Metal IV - 2014, FLAC (image+.cue), lossless 

Цитировать
VA - All For Metal IV
Жанр: Various Metal
Носитель: CD
Страна-производитель диска (релиза): Germany
Год издания: 2014
Издатель (лейбл): AFM Records
Номер по каталогу: AFM 500-7
Страна исполнителя (группы): Various
Аудиокодек: FLAC (*.flac)
Тип рипа: image+.cue
Битрейт аудио: lossless
Продолжительность: 01:16:13
Источник (релизер): Собственный рип
Наличие сканов в содержимом раздачи: здесь
Треклист:
01 Iron Savior - Revenge Of The Bride
02 Lyriel - Skin And Bones
03 Nightmare - Forbidden Tribe
04 Helstar - Fall Of Dominion
05 Iron Mask - Only One Commandment
06 Human Fortress - Under Siege
07 Epysode - Forgotten Symphony
08 Oliva - Father Time
09 Lillian Axe - The Great Divide
10 Wolfpakk - The Beast In Me
11 Crystal Viper - Prophet Of The End
12 Hibria - Lonely Fight
13 At Vance - Saviour
14 Fear Factory - New Messiah
15 Ill Nino - The Depression
16 Truth Corroded - They Are Horror

Лог создания рипа

Exact Audio Copy V1.1 from 23. June 2015
EAC extraction logfile from 17. September 2018, 17:52
Various Artists / All For Metal IV
Used drive : ASUS DRW-24F1ST a Adapter: 1 ID: 1
Read mode : SecureUtilize accurate stream : YesDefeat audio cache : YesMake use of C2 pointers : No
Read offset correction : 6Overread into Lead-In and Lead-Out : NoFill up missing offset samples with silence : YesDelete leading and trailing silent blocks : NoNull samples used in CRC calculations : YesUsed interface : Native Win32 interface for Win NT & 2000
Used output format : User Defined EncoderSelected bitrate : 896 kBit/sQuality : HighAdd ID3 tag : NoCommand line compressor : C:\Program Files (x86)\Exact Audio Copy\Flac\flac.exeAdditional command line options : -V -8 -T "Date=%year%" -T "COMMENT=ripped by CHKA1961" -T "Genre=%genre%" %source%
TOC of the extracted CD
Track | Start | Length | Start sector | End sector --------------------------------------------------------- 1 | 0:00.00 | 4:37.05 | 0 | 20779 2 | 4:37.05 | 4:04.16 | 20780 | 39095 3 | 8:41.21 | 4:28.00 | 39096 | 59195 4 | 13:09.21 | 6:38.58 | 59196 | 89103 5 | 19:48.04 | 3:49.08 | 89104 | 106286 6 | 23:37.12 | 4:21.21 | 106287 | 125882 7 | 27:58.33 | 6:49.19 | 125883 | 156576 8 | 34:47.52 | 4:34.55 | 156577 | 177181 9 | 39:22.32 | 6:28.14 | 177182 | 206295 10 | 45:50.46 | 4:38.51 | 206296 | 227196 11 | 50:29.22 | 5:37.74 | 227197 | 252545 12 | 56:07.21 | 4:43.30 | 252546 | 273800 13 | 60:50.51 | 3:42.33 | 273801 | 290483 14 | 64:33.09 | 4:31.40 | 290484 | 310848 15 | 69:04.49 | 3:46.31 | 310849 | 327829 16 | 72:51.05 | 3:22.33 | 327830 | 343012
Range status and errors
Selected range
Filename D:\Downloads\VA - All For Metal IV (CD)\Various Artists - All For Metal IV.wav
Peak level 98.8 % Extraction speed 3.5 X Range quality 100.0 % Test CRC F40CFF44 Copy CRC F40CFF44 Copy OK
No errors occurred
AccurateRip summary
Track 1 accurately ripped (confidence 1) [D0FB29B4] (AR v2)Track 2 accurately ripped (confidence 1) [49F462A5] (AR v2)Track 3 accurately ripped (confidence 1) [B16AFEA1] (AR v2)Track 4 accurately ripped (confidence 1) [CE6FA052] (AR v2)Track 5 accurately ripped (confidence 1) [B8A4BC40] (AR v2)Track 6 accurately ripped (confidence 1) [02036558] (AR v2)Track 7 accurately ripped (confidence 1) [7488B6B2] (AR v2)Track 8 accurately ripped (confidence 1) [25DF4627] (AR v2)Track 9 accurately ripped (confidence 1) [86FD2582] (AR v2)Track 10 accurately ripped (confidence 1) [4FAB2FFE] (AR v2)Track 11 accurately ripped (confidence 1) [2DC55F1E] (AR v2)Track 12 accurately ripped (confidence 1) [E9BD9D1A] (AR v2)Track 13 accurately ripped (confidence 1) [C7C92A5E] (AR v2)Track 14 accurately ripped (confidence 1) [891779D2] (AR v2)Track 15 accurately ripped (confidence 1) [23DAD2BE] (AR v2)Track 16 accurately ripped (confidence 1) [BF1194EC] (AR v2)
All tracks accurately ripped
End of status report
==== Log checksum FCCCEAFF2323EDF2B334B54CAC3666EA84686913FE9C6F06BA52397CC8F94639 ====

Содержание индексной карты (.CUE)

REM GENRE "Heavy Metal"REM DATE 2014REM DISCID ED11DD10REM COMMENT "ExactAudioCopy v1.1"PERFORMER "Various Artists"TITLE "All For Metal IV"FILE "Various Artists - All For Metal IV.flac" WAVE  TRACK 01 AUDIO    TITLE "Revenge of the Bride"    PERFORMER "Iron Savior"    INDEX 01 00:00:00  TRACK 02 AUDIO    TITLE "Skin and Bones"    PERFORMER "Lyriel"    INDEX 00 04:35:05    INDEX 01 04:37:05  TRACK 03 AUDIO    TITLE "Forbidden Tribe"    PERFORMER "Nightmare"    INDEX 00 08:39:21    INDEX 01 08:41:21  TRACK 04 AUDIO    TITLE "Fall of Dominion"    PERFORMER "Helstar"    INDEX 00 13:07:21    INDEX 01 13:09:21  TRACK 05 AUDIO    TITLE "Only One Commandment"    PERFORMER "Iron Mask"    INDEX 00 19:46:04    INDEX 01 19:48:04  TRACK 06 AUDIO    TITLE "Under Siege"    PERFORMER "Human Fortress"    INDEX 00 23:35:12    INDEX 01 23:37:12  TRACK 07 AUDIO    TITLE "Forgotten Symphony"    PERFORMER "Epysode"    INDEX 00 27:55:21    INDEX 01 27:58:33  TRACK 08 AUDIO    TITLE "Father Time"    PERFORMER "Oliva"    INDEX 00 34:45:52    INDEX 01 34:47:52  TRACK 09 AUDIO    TITLE "The Great Divide"    PERFORMER "Lillian Axe"    INDEX 00 39:20:32    INDEX 01 39:22:32  TRACK 10 AUDIO    TITLE "The Beast in Me"    PERFORMER "Wolfpakk"    INDEX 00 45:48:46    INDEX 01 45:50:46  TRACK 11 AUDIO    TITLE "Prophet of the End"    PERFORMER "Crystal Viper"    INDEX 00 50:27:22    INDEX 01 50:29:22  TRACK 12 AUDIO    TITLE "Lonely Fight"    PERFORMER "Hibria"    INDEX 00 56:05:21    INDEX 01 56:07:21  TRACK 13 AUDIO    TITLE "Saviour"    PERFORMER "At Vance"    INDEX 00 60:48:51    INDEX 01 60:50:51  TRACK 14 AUDIO    TITLE "New Messiah"    PERFORMER "Fear Factory"    INDEX 00 64:31:09    INDEX 01 64:33:09  TRACK 15 AUDIO    TITLE "The Depression"    PERFORMER "Ill Nino"    INDEX 00 69:03:45    INDEX 01 69:04:49  TRACK 16 AUDIO    TITLE "They are Horror"    PERFORMER "Truth Corroded"    INDEX 00 72:49:05    INDEX 01 72:51:05
Доп. информация: DVD9 находится здесь
Вы не можете начинать темы
Вы не можете отвечать на сообщения
Вы не можете редактировать свои сообщения
Вы не можете удалять свои сообщения
Вы не можете голосовать в опросах
Вы не можете прикреплять файлы к сообщениям
Вы можете скачивать файлы
!ВНИМАНИЕ!

Сайт не предоставляет электронные версии произведений, а занимается лишь коллекционированием и каталогизацией ссылок, присылаемых и публикуемых на форуме нашими читателями. Если вы являетесь правообладателем какого-либо представленного материала и не желаете, чтобы ссылка на него находилась в нашем каталоге, свяжитесь с нами, и мы незамедлительно удалим ее. Файлы для обмена на трекере предоставлены пользователями сайта, и администрация не несет ответственности за их содержание. Просьба не заливать файлы, защищенные авторскими правами, а также файлы нелегального содержания!

Искали программы, игры, дополнения, музыка mp3, аниме, аудио книги, журналы? Добро пожаловать на свободный торрент трекер Torrents, у нас можно скачать бесплатно, без смс и регистрации и прочих ограничений лучшие, отборные сборки программ, игр. Скачать торрентом не составит труда даже не опытному пользователю. Раздачи ежедневно обновляются, только лучшие и качественные раздачи, подробные описания и скриншоты. Огромная коллекция программ для работы со звуком, графикой, дизайном, а так же множество плагинов и инструментов к ним с подробной инструкцией и рекомендациями. Прошивки для навигаторов, карты. Разнообразные игры, для Windows, Linux. В коллекцие есть и старые игры любых жанров, Rpg, Action, Shooter, strategy Множество дополнений, модификаций, сценариев для популярных игр в жанре экш, рпг, гонки, стратегии, логические игры. Множество аддонов и сценариев для Microsoft Flight Simulator Большая коллекция книг, учебников. Если нет возможности купить печатное издание - смело скачивайте цифровую версию книги или, быть может, журнала. Не любите читать - можно загрузить бесплатно аудикнигу. Для веб дизайнеров и программистов так же найдется множество специализированного софта, таких как: редакторы с подсветкой, среды программирования, компоненты, системы управления базами данных, разнообразные скрипты и шаблоны. Не так давно у нас появился материал для автолюбителей и владельцев мото - оригинальные и неоригинальные каталоги запчастей, книги и журналы по ремонту и обслуживанию, видеоуроки, статьи по чип тюнингу, прошивкам. Процедура получения контента элементарная, достаточно просто скачать торрент файл и добавить его в загрузку в вашем торрент клиенте. Если у вас нет специального торрент клиента, вы можете его скачать у нас.