(Gothic Metal) [CD] Let Me Dream - Soulshine - 2004 (RE 2006), WavPack (tracks+.cue), lossless 

Цитировать
Let Me Dream / Soulshine
Жанр: Gothic Metal
Страна исполнителя: Finland
Издание: BBE 0007 LMD, Black Bards Entertainment (RE 2006)
Источник: собственный рип фирменного диска
Носитель: CD
Год издания: 2006
Страна-производитель диска: Germany
Аудиокодек: WavPack (*.wv)
Тип рипа: tracks+.cue
Битрейт аудио: lossless
ReplayGain: присутствует
Продолжительность: 42:52
Наличие сканов в содержимом раздачи: нет
Треклист:
01. Soulshine
02. Roses on the Silver Plate
03. I Resonate
04. Domain of Despair
05. Powered by the Moon
06. Babel
07. As the Souls Embrace
08. Dust of Time
09. The Autumn Twilight

Лог создания рипа

Exact Audio Copy V1.0 beta 3 from 29. August 2011
EAC extraction logfile from 21. August 2013, 18:22
Let Me Dream / Soulshine
Used drive : HL-DT-STDVD-RAM GH22NP21 Adapter: 0 ID: 1
Read mode : SecureUtilize accurate stream : YesDefeat audio cache : YesMake use of C2 pointers : No
Read offset correction : 102Overread into Lead-In and Lead-Out : NoFill up missing offset samples with silence : YesDelete leading and trailing silent blocks : NoNull samples used in CRC calculations : YesUsed interface : Native Win32 interface for Win NT & 2000Gap handling : Appended to previous track
Used output format : Internal WAV RoutinesSample format : 44.100 Hz; 16 Bit; Stereo
TOC of the extracted CD
Track | Start | Length | Start sector | End sector --------------------------------------------------------- 1 | 0:00.00 | 4:53.35 | 0 | 22009 2 | 4:53.35 | 5:12.70 | 22010 | 45479 3 | 10:06.30 | 4:12.50 | 45480 | 64429 4 | 14:19.05 | 4:49.49 | 64430 | 86153 5 | 19:08.54 | 5:02.72 | 86154 | 108875 6 | 24:11.51 | 5:13.07 | 108876 | 132357 7 | 29:24.58 | 4:38.09 | 132358 | 153216 8 | 34:02.67 | 3:44.67 | 153217 | 170083 9 | 37:47.59 | 5:04.29 | 170084 | 192912 10 | 45:24.13 | 8:38.15 | 204313 | 243177
Track 1
Filename F:\rips\Let Me Dream - 2004 - Soulshine\01 - Soulshine.wav
Pre-gap length 0:00:02.00
Peak level 99.9 % Extraction speed 2.4 X Track quality 99.9 % Test CRC 3F68CDB8 Copy CRC 3F68CDB8 Track not present in AccurateRip database Copy OK
Track 2
Filename F:\rips\Let Me Dream - 2004 - Soulshine\02 - Roses On The Silver Plate.wav
Pre-gap length 0:00:02.00
Peak level 99.9 % Extraction speed 3.1 X Track quality 100.0 % Test CRC 480CCE3A Copy CRC 480CCE3A Track not present in AccurateRip database Copy OK
Track 3
Filename F:\rips\Let Me Dream - 2004 - Soulshine\03 - I Resonate.wav
Pre-gap length 0:00:02.00
Peak level 99.9 % Extraction speed 2.8 X Track quality 99.9 % Test CRC 4E6E452D Copy CRC 4E6E452D Track not present in AccurateRip database Copy OK
Track 4
Filename F:\rips\Let Me Dream - 2004 - Soulshine\04 - Domain Of Despair.wav
Pre-gap length 0:00:02.00
Peak level 99.9 % Extraction speed 3.7 X Track quality 100.0 % Test CRC B205FAA6 Copy CRC B205FAA6 Track not present in AccurateRip database Copy OK
Track 5
Filename F:\rips\Let Me Dream - 2004 - Soulshine\05 - Powered By The Moon.wav
Pre-gap length 0:00:02.00
Peak level 99.9 % Extraction speed 4.0 X Track quality 100.0 % Test CRC F57D9B18 Copy CRC F57D9B18 Track not present in AccurateRip database Copy OK
Track 6
Filename F:\rips\Let Me Dream - 2004 - Soulshine\06 - Babel.wav
Pre-gap length 0:00:02.00
Peak level 99.9 % Extraction speed 4.0 X Track quality 100.0 % Test CRC 8977483E Copy CRC 8977483E Track not present in AccurateRip database Copy OK
Track 7
Filename F:\rips\Let Me Dream - 2004 - Soulshine\07 - As The Souls Embrace.wav
Pre-gap length 0:00:02.00
Peak level 99.9 % Extraction speed 4.2 X Track quality 100.0 % Test CRC 9F69DE45 Copy CRC 9F69DE45 Track not present in AccurateRip database Copy OK
Track 8
Filename F:\rips\Let Me Dream - 2004 - Soulshine\08 - Dust Of Time.wav
Pre-gap length 0:00:02.00
Peak level 99.9 % Extraction speed 4.3 X Track quality 100.0 % Test CRC E8431A2C Copy CRC E8431A2C Track not present in AccurateRip database Copy OK
Track 9
Filename F:\rips\Let Me Dream - 2004 - Soulshine\09 - The Autumn Twilight.wav
Pre-gap length 0:00:02.00
Peak level 99.9 % Extraction speed 4.6 X Track quality 100.0 % Test CRC A057A687 Copy CRC A057A687 Track not present in AccurateRip database Copy OK
None of the tracks are present in the AccurateRip database
No errors occurred
End of status report
==== Log checksum F9102E93F7B6F51BA6AD31461B68F759F5F6D6EF52886FC5DF141BD3357F5C44 ====

Содержание индексной карты (.CUE)

REM DATE 2004REM COMMENT "ExactAudioCopy v1.0b3"FILE "01 - Soulshine.wav" WAVE  TRACK 01 AUDIO    FLAGS DCP    INDEX 01 00:00:00  TRACK 02 AUDIO    FLAGS DCP    INDEX 00 04:51:35FILE "02 - Roses On The Silver Plate.wav" WAVE    INDEX 01 00:00:00  TRACK 03 AUDIO    FLAGS DCP    INDEX 00 05:10:70FILE "03 - I Resonate.wav" WAVE    INDEX 01 00:00:00  TRACK 04 AUDIO    FLAGS DCP    INDEX 00 04:10:50FILE "04 - Domain Of Despair.wav" WAVE    INDEX 01 00:00:00  TRACK 05 AUDIO    FLAGS DCP    INDEX 00 04:47:49FILE "05 - Powered By The Moon.wav" WAVE    INDEX 01 00:00:00  TRACK 06 AUDIO    FLAGS DCP    INDEX 00 05:00:72FILE "06 - Babel.wav" WAVE    INDEX 01 00:00:00  TRACK 07 AUDIO    FLAGS DCP    INDEX 00 05:11:07FILE "07 - As The Souls Embrace.wav" WAVE    INDEX 01 00:00:00  TRACK 08 AUDIO    FLAGS DCP    INDEX 00 04:36:09FILE "08 - Dust Of Time.wav" WAVE    INDEX 01 00:00:00  TRACK 09 AUDIO    FLAGS DCP    INDEX 00 03:42:67FILE "09 - The Autumn Twilight.wav" WAVE    INDEX 01 00:00:00  TRACK 10 MODEx/2xxx    INDEX 00 05:04:29

CUETools log

[CUETools log; Date: 18/09/28 10:12:11; Version: 2.1.6]CD-Extra data track length 08:38:15.[CTDB TOCID: rvqHiZ7jwMkfic.IuRgJkPZTf8I-] found.        [ CTDBID ] Status        [f60b8a24] (2/2) Accurately rippedTrack | CTDB Status  1   | (2/2) Accurately ripped  2   | (2/2) Accurately ripped  3   | (2/2) Accurately ripped  4   | (2/2) Accurately ripped  5   | (2/2) Accurately ripped  6   | (2/2) Accurately ripped  7   | (2/2) Accurately ripped  8   | (2/2) Accurately ripped  9   | (2/2) Accurately ripped[AccurateRip ID: 000fa6fb-007487f9-850caa0a] found.Track   [  CRC   |   V2   ] Status 01     [89b4e622|9c4ccc36] (0+1/1) Accurately ripped 02     [b3dff9d4|38630602] (0+1/1) Accurately ripped 03     [9b84f990|a6116718] (0+1/1) Accurately ripped 04     [578bf4e5|b3ececf0] (0+1/1) Accurately ripped 05     [958e6aff|dd2a86a6] (0+1/1) Accurately ripped 06     [9c1345c8|a54a4692] (0+1/1) Accurately ripped 07     [74bdf39d|b6bc697e] (0+1/1) Accurately ripped 08     [340c073c|7b3516ca] (0+1/1) Accurately ripped 09     [2f335069|933c99cf] (0+1/1) Accurately ripped
Track Peak [ CRC32 ] [W/O NULL] [ LOG ] -- 99.9 [D6D8EB71] [6475499D] 01 99.9 [3F68CDB8] [91F3E624] CRC32 02 99.9 [480CCE3A] [2BB36CF3] CRC32 03 99.9 [4E6E452D] [AFDF749E] CRC32 04 99.9 [B205FAA6] [0EE0D164] CRC32 05 99.9 [F57D9B18] [D93AB17B] CRC32 06 99.9 [8977483E] [7CE0DE0B] CRC32 07 99.9 [9F69DE45] [EE2A19E2] CRC32 08 99.9 [E8431A2C] [B75C5D6C] CRC32 09 99.9 [A057A687] [53869AF1] CRC32
Разочаровал некоторых фанов, поскольку жанр сместился в сторону готик-рока, однако мне, как его любителю, такая дань корням очень понравилась. Больше бы такого "скучного шаблонного готик-рока" (по выражению доморощенного критика с металл-архивов) на уровне культового Catherines Cathedral. Не уступает дебютнику.
P. S. Также на диске присутствует клип в запредельном низком качестве, в раздачу включать не стал.
Вы не можете начинать темы
Вы не можете отвечать на сообщения
Вы не можете редактировать свои сообщения
Вы не можете удалять свои сообщения
Вы не можете голосовать в опросах
Вы не можете прикреплять файлы к сообщениям
Вы можете скачивать файлы
!ВНИМАНИЕ!

Сайт не предоставляет электронные версии произведений, а занимается лишь коллекционированием и каталогизацией ссылок, присылаемых и публикуемых на форуме нашими читателями. Если вы являетесь правообладателем какого-либо представленного материала и не желаете, чтобы ссылка на него находилась в нашем каталоге, свяжитесь с нами, и мы незамедлительно удалим ее. Файлы для обмена на трекере предоставлены пользователями сайта, и администрация не несет ответственности за их содержание. Просьба не заливать файлы, защищенные авторскими правами, а также файлы нелегального содержания!

Искали программы, игры, дополнения, музыка mp3, аниме, аудио книги, журналы? Добро пожаловать на свободный торрент трекер Torrents, у нас можно скачать бесплатно, без смс и регистрации и прочих ограничений лучшие, отборные сборки программ, игр. Скачать торрентом не составит труда даже не опытному пользователю. Раздачи ежедневно обновляются, только лучшие и качественные раздачи, подробные описания и скриншоты. Огромная коллекция программ для работы со звуком, графикой, дизайном, а так же множество плагинов и инструментов к ним с подробной инструкцией и рекомендациями. Прошивки для навигаторов, карты. Разнообразные игры, для Windows, Linux. В коллекцие есть и старые игры любых жанров, Rpg, Action, Shooter, strategy Множество дополнений, модификаций, сценариев для популярных игр в жанре экш, рпг, гонки, стратегии, логические игры. Множество аддонов и сценариев для Microsoft Flight Simulator Большая коллекция книг, учебников. Если нет возможности купить печатное издание - смело скачивайте цифровую версию книги или, быть может, журнала. Не любите читать - можно загрузить бесплатно аудикнигу. Для веб дизайнеров и программистов так же найдется множество специализированного софта, таких как: редакторы с подсветкой, среды программирования, компоненты, системы управления базами данных, разнообразные скрипты и шаблоны. Не так давно у нас появился материал для автолюбителей и владельцев мото - оригинальные и неоригинальные каталоги запчастей, книги и журналы по ремонту и обслуживанию, видеоуроки, статьи по чип тюнингу, прошивкам. Процедура получения контента элементарная, достаточно просто скачать торрент файл и добавить его в загрузку в вашем торрент клиенте. Если у вас нет специального торрент клиента, вы можете его скачать у нас.