(Gothic Metal | Darkwave) [CD] Samsas Traum - Scheiden tut weh - 2018 FLAC (tracks+.cue), lossless 

Цитировать


Samsas Traum

Scheiden tut weh





• Жанр: Gothic Metal | Darkwave
• Носитель: CD
• Год издания: 2018
• Издатель (лейбл) Napalm Rec. Trisol Music Group
• Страна исполнителя (группы): Germany
• Аудиокодек: FLAC (*.flac)
• Тип рипа: tracks+.cue
• Продолжительность: 00:54:24
• Источник (релизер): GetMetal ®
• Наличие сканов: front

01. Die Taufe (00:05:07)
02. Bis in alle Ewigkeit (00:03:16)
03. Dein bleicher Wolf (00:04:12)
04. Parasitenfotze (00:04:55)
05. Im Tal des schwarzen Mondes (00:03:54)
06. Auch du (00:03:33)
07. Ich bin der Antichrist (00:04:43)
08. Scheiden tut weh (00:03:18)
09. Das Grab war leer (00:04:58)
10. Das Madenlied (00:03:41)
11. Dafür sind Helden da (00:06:47)
12. Dornen (Bonus) (00:06:00)
-

• Cue •

REM GENRE MetalREM DATE 2018REM DISCID BB0CC00CREM COMMENT "ExactAudioCopy v1.3"PERFORMER "Samsas Traum"TITLE "Scheiden tut weh"REM COMPOSER ""FILE "01 - Die Taufe.wav" WAVE  TRACK 01 AUDIO    TITLE "Die Taufe"    PERFORMER "Samsas Traum"    REM COMPOSER ""    INDEX 01 00:00:00FILE "02 - Bis in alle Ewigkeit.wav" WAVE  TRACK 02 AUDIO    TITLE "Bis in alle Ewigkeit"    PERFORMER "Samsas Traum"    REM COMPOSER ""    INDEX 01 00:00:00FILE "03 - Dein bleicher Wolf.wav" WAVE  TRACK 03 AUDIO    TITLE "Dein bleicher Wolf"    PERFORMER "Samsas Traum"    REM COMPOSER ""    INDEX 01 00:00:00FILE "04 - Parasitenfotze.wav" WAVE  TRACK 04 AUDIO    TITLE "Parasitenfotze"    PERFORMER "Samsas Traum"    REM COMPOSER ""    INDEX 01 00:00:00FILE "05 - Im Tal des schwarzen Mondes.wav" WAVE  TRACK 05 AUDIO    TITLE "Im Tal des schwarzen Mondes"    PERFORMER "Samsas Traum"    REM COMPOSER ""    INDEX 01 00:00:00FILE "06 - Auch du.wav" WAVE  TRACK 06 AUDIO    TITLE "Auch du"    PERFORMER "Samsas Traum"    REM COMPOSER ""    INDEX 01 00:00:00FILE "07 - Ich bin der Antichrist.wav" WAVE  TRACK 07 AUDIO    TITLE "Ich bin der Antichrist"    PERFORMER "Samsas Traum"    REM COMPOSER ""    INDEX 01 00:00:00FILE "08 - Scheiden tut weh.wav" WAVE  TRACK 08 AUDIO    TITLE "Scheiden tut weh"    PERFORMER "Samsas Traum"    REM COMPOSER ""    INDEX 01 00:00:00FILE "09 - Das Grab war leer.wav" WAVE  TRACK 09 AUDIO    TITLE "Das Grab war leer"    PERFORMER "Samsas Traum"    REM COMPOSER ""    INDEX 01 00:00:00FILE "10 - Das Madenlied.wav" WAVE  TRACK 10 AUDIO    TITLE "Das Madenlied"    PERFORMER "Samsas Traum"    REM COMPOSER ""    INDEX 01 00:00:00FILE "11 - Dafьr sind Helden da.wav" WAVE  TRACK 11 AUDIO    TITLE "Dafьr sind Helden da"    PERFORMER "Samsas Traum"    REM COMPOSER ""    INDEX 01 00:00:00FILE "12 - Dornen (Bonus).wav" WAVE  TRACK 12 AUDIO    TITLE "Dornen (Bonus)"    PERFORMER "Samsas Traum"    REM COMPOSER ""    INDEX 01 00:00:00
-

Cue edit

REM GENRE MetalREM DATE 2018REM DISCID BB0CC00CREM COMMENT "ExactAudioCopy v1.3"PERFORMER "Samsas Traum"TITLE "Scheiden tut weh"REM COMPOSER ""FILE "01 - Die Taufe.wav" WAVE  TRACK 01 AUDIO    TITLE "Die Taufe"    PERFORMER "Samsas Traum"    REM COMPOSER ""    INDEX 01 00:00:00FILE "02 - Bis in alle Ewigkeit.wav" WAVE  TRACK 02 AUDIO    TITLE "Bis in alle Ewigkeit"    PERFORMER "Samsas Traum"    REM COMPOSER ""    INDEX 01 00:00:00FILE "03 - Dein bleicher Wolf.wav" WAVE  TRACK 03 AUDIO    TITLE "Dein bleicher Wolf"    PERFORMER "Samsas Traum"    REM COMPOSER ""    INDEX 01 00:00:00FILE "04 - Parasitenfotze.wav" WAVE  TRACK 04 AUDIO    TITLE "Parasitenfotze"    PERFORMER "Samsas Traum"    REM COMPOSER ""    INDEX 01 00:00:00FILE "05 - Im Tal des schwarzen Mondes.wav" WAVE  TRACK 05 AUDIO    TITLE "Im Tal des schwarzen Mondes"    PERFORMER "Samsas Traum"    REM COMPOSER ""    INDEX 01 00:00:00FILE "06 - Auch du.wav" WAVE  TRACK 06 AUDIO    TITLE "Auch du"    PERFORMER "Samsas Traum"    REM COMPOSER ""    INDEX 01 00:00:00FILE "07 - Ich bin der Antichrist.wav" WAVE  TRACK 07 AUDIO    TITLE "Ich bin der Antichrist"    PERFORMER "Samsas Traum"    REM COMPOSER ""    INDEX 01 00:00:00FILE "08 - Scheiden tut weh.wav" WAVE  TRACK 08 AUDIO    TITLE "Scheiden tut weh"    PERFORMER "Samsas Traum"    REM COMPOSER ""    INDEX 01 00:00:00FILE "09 - Das Grab war leer.wav" WAVE  TRACK 09 AUDIO    TITLE "Das Grab war leer"    PERFORMER "Samsas Traum"    REM COMPOSER ""    INDEX 01 00:00:00FILE "10 - Das Madenlied.wav" WAVE  TRACK 10 AUDIO    TITLE "Das Madenlied"    PERFORMER "Samsas Traum"    REM COMPOSER ""    INDEX 01 00:00:00FILE "11 - Dafür sind Helden da.wav" WAVE  TRACK 11 AUDIO    TITLE "Dafür sind Helden da"    PERFORMER "Samsas Traum"    REM COMPOSER ""    INDEX 01 00:00:00FILE "12 - Dornen (Bonus).wav" WAVE  TRACK 12 AUDIO    TITLE "Dornen (Bonus)"    PERFORMER "Samsas Traum"    REM COMPOSER ""    INDEX 01 00:00:00

• Лог создания рипа •

Exact Audio Copy V1.3 from 2. September 2016
EAC extraction logfile from 24. October 2018, 17:28
Samsas Traum / Scheiden tut weh
Used drive : MATSHITADVD-RAM UJ890AS Adapter: 1 ID: 0
Read mode : SecureUtilize accurate stream : YesDefeat audio cache : YesMake use of C2 pointers : No
Read offset correction : 102Overread into Lead-In and Lead-Out : NoFill up missing offset samples with silence : YesDelete leading and trailing silent blocks : NoNull samples used in CRC calculations : YesUsed interface : Native Win32 interface for Win NT & 2000Gap handling : Appended to previous track
Used output format : User Defined EncoderSelected bitrate : 1024 kBit/sQuality : HighAdd ID3 tag : NoCommand line compressor : C:\Program Files (x86)\Exact Audio Copy\Flac\flac.exeAdditional command line options : -8 -e -V -T "ARTIST=%artist%" -T "TITLE=%title%" -T "ALBUM=%albumtitle%" -T "DATE=%year%" -T "TRACKNUMBER=%tracknr%" -T "GENRE=%genre%" -T "PERFORMER=%albuminterpret%" -T "COMPOSER=%composer%" %haslyrics%--tag-from-file=LYRICS="%lyricsfile%"%haslyrics% -T "ALBUMARTIST=%albumartist%" -T "DISCNUMBER=%cdnumber%" -T "TOTALDISCS=%totalcds%" -T "TOTALTRACKS=%numtracks%" -T "COMMENT=%comment%" %source% -o %dest%
TOC of the extracted CD
Track | Start | Length | Start sector | End sector --------------------------------------------------------- 1 | 0:00.00 | 5:07.00 | 0 | 23024 2 | 5:07.00 | 3:16.00 | 23025 | 37724 3 | 8:23.00 | 4:12.01 | 37725 | 56625 4 | 12:35.01 | 4:55.00 | 56626 | 78750 5 | 17:30.01 | 3:54.00 | 78751 | 96300 6 | 21:24.01 | 3:33.00 | 96301 | 112275 7 | 24:57.01 | 4:43.00 | 112276 | 133500 8 | 29:40.01 | 3:18.00 | 133501 | 148350 9 | 32:58.01 | 4:58.00 | 148351 | 170700 10 | 37:56.01 | 3:41.00 | 170701 | 187275 11 | 41:37.01 | 6:47.00 | 187276 | 217800 12 | 48:24.01 | 6:00.00 | 217801 | 244800
Track 1
Filename D:\Torrent\Upload\RED\Samsas Traum - Scheiden tut weh (2018) [FLAC]\01 - Die Taufe.wav
Pre-gap length 0:00:02.00
Peak level 99.8 % Extraction speed 1.2 X Track quality 100.0 % Test CRC 07D6A57A Copy CRC 07D6A57A Track not present in AccurateRip database Copy OK
Track 2
Filename D:\Torrent\Upload\RED\Samsas Traum - Scheiden tut weh (2018) [FLAC]\02 - Bis in alle Ewigkeit.wav
Peak level 99.8 % Extraction speed 1.2 X Track quality 100.0 % Test CRC D3226DF2 Copy CRC D3226DF2 Track not present in AccurateRip database Copy OK
Track 3
Filename D:\Torrent\Upload\RED\Samsas Traum - Scheiden tut weh (2018) [FLAC]\03 - Dein bleicher Wolf.wav
Peak level 99.8 % Extraction speed 1.2 X Track quality 99.9 % Test CRC ED52F704 Copy CRC ED52F704 Track not present in AccurateRip database Copy OK
Track 4
Filename D:\Torrent\Upload\RED\Samsas Traum - Scheiden tut weh (2018) [FLAC]\04 - Parasitenfotze.wav
Peak level 99.8 % Extraction speed 1.5 X Track quality 100.0 % Test CRC 6D3FED18 Copy CRC 6D3FED18 Track not present in AccurateRip database Copy OK
Track 5
Filename D:\Torrent\Upload\RED\Samsas Traum - Scheiden tut weh (2018) [FLAC]\05 - Im Tal des schwarzen Mondes.wav
Peak level 99.8 % Extraction speed 1.6 X Track quality 100.0 % Test CRC 2C73ACBF Copy CRC 2C73ACBF Track not present in AccurateRip database Copy OK
Track 6
Filename D:\Torrent\Upload\RED\Samsas Traum - Scheiden tut weh (2018) [FLAC]\06 - Auch du.wav
Peak level 99.8 % Extraction speed 1.6 X Track quality 100.0 % Test CRC EDD0996A Copy CRC EDD0996A Track not present in AccurateRip database Copy OK
Track 7
Filename D:\Torrent\Upload\RED\Samsas Traum - Scheiden tut weh (2018) [FLAC]\07 - Ich bin der Antichrist.wav
Peak level 99.8 % Extraction speed 1.8 X Track quality 100.0 % Test CRC 01179668 Copy CRC 01179668 Track not present in AccurateRip database Copy OK
Track 8
Filename D:\Torrent\Upload\RED\Samsas Traum - Scheiden tut weh (2018) [FLAC]\08 - Scheiden tut weh.wav
Peak level 99.8 % Extraction speed 1.8 X Track quality 100.0 % Test CRC 92080C6E Copy CRC 92080C6E Track not present in AccurateRip database Copy OK
Track 9
Filename D:\Torrent\Upload\RED\Samsas Traum - Scheiden tut weh (2018) [FLAC]\09 - Das Grab war leer.wav
Peak level 99.8 % Extraction speed 2.0 X Track quality 100.0 % Test CRC C0E8CDF0 Copy CRC C0E8CDF0 Track not present in AccurateRip database Copy OK
Track 10
Filename D:\Torrent\Upload\RED\Samsas Traum - Scheiden tut weh (2018) [FLAC]\10 - Das Madenlied.wav
Peak level 99.8 % Extraction speed 2.0 X Track quality 100.0 % Test CRC E57DC50E Copy CRC E57DC50E Track not present in AccurateRip database Copy OK
Track 11
Filename D:\Torrent\Upload\RED\Samsas Traum - Scheiden tut weh (2018) [FLAC]\11 - Dafür sind Helden da.wav
Peak level 99.8 % Extraction speed 2.1 X Track quality 99.9 % Test CRC 8E0565BC Copy CRC 8E0565BC Track not present in AccurateRip database Copy OK
Track 12
Filename D:\Torrent\Upload\RED\Samsas Traum - Scheiden tut weh (2018) [FLAC]\12 - Dornen (Bonus).wav
Peak level 99.7 % Extraction speed 2.3 X Track quality 100.0 % Test CRC 1BBA04F7 Copy CRC 1BBA04F7 Track not present in AccurateRip database Copy OK
None of the tracks are present in the AccurateRip database
No errors occurred
End of status report
==== Log checksum 9920F6DB10DE98F26CE0DB91E26D81278217DF9E3BE90E6D298C696546D07F0A ====
-
Вы не можете начинать темы
Вы не можете отвечать на сообщения
Вы не можете редактировать свои сообщения
Вы не можете удалять свои сообщения
Вы не можете голосовать в опросах
Вы не можете прикреплять файлы к сообщениям
Вы можете скачивать файлы
!ВНИМАНИЕ!

Сайт не предоставляет электронные версии произведений, а занимается лишь коллекционированием и каталогизацией ссылок, присылаемых и публикуемых на форуме нашими читателями. Если вы являетесь правообладателем какого-либо представленного материала и не желаете, чтобы ссылка на него находилась в нашем каталоге, свяжитесь с нами, и мы незамедлительно удалим ее. Файлы для обмена на трекере предоставлены пользователями сайта, и администрация не несет ответственности за их содержание. Просьба не заливать файлы, защищенные авторскими правами, а также файлы нелегального содержания!

Искали программы, игры, дополнения, музыка mp3, аниме, аудио книги, журналы? Добро пожаловать на свободный торрент трекер Torrents, у нас можно скачать бесплатно, без смс и регистрации и прочих ограничений лучшие, отборные сборки программ, игр. Скачать торрентом не составит труда даже не опытному пользователю. Раздачи ежедневно обновляются, только лучшие и качественные раздачи, подробные описания и скриншоты. Огромная коллекция программ для работы со звуком, графикой, дизайном, а так же множество плагинов и инструментов к ним с подробной инструкцией и рекомендациями. Прошивки для навигаторов, карты. Разнообразные игры, для Windows, Linux. В коллекцие есть и старые игры любых жанров, Rpg, Action, Shooter, strategy Множество дополнений, модификаций, сценариев для популярных игр в жанре экш, рпг, гонки, стратегии, логические игры. Множество аддонов и сценариев для Microsoft Flight Simulator Большая коллекция книг, учебников. Если нет возможности купить печатное издание - смело скачивайте цифровую версию книги или, быть может, журнала. Не любите читать - можно загрузить бесплатно аудикнигу. Для веб дизайнеров и программистов так же найдется множество специализированного софта, таких как: редакторы с подсветкой, среды программирования, компоненты, системы управления базами данных, разнообразные скрипты и шаблоны. Не так давно у нас появился материал для автолюбителей и владельцев мото - оригинальные и неоригинальные каталоги запчастей, книги и журналы по ремонту и обслуживанию, видеоуроки, статьи по чип тюнингу, прошивкам. Процедура получения контента элементарная, достаточно просто скачать торрент файл и добавить его в загрузку в вашем торрент клиенте. Если у вас нет специального торрент клиента, вы можете его скачать у нас.